Crazy World Only 4 You

Sorry For The Inconvenience. If You are facing link dead or no google drive file access then inform us via comment

Latest Updates

Tuesday, 2 January 2018

Urban Justice (2007) 720p WEB-DL Dual Audio [English - Hindi] Esub


Poster


iMDB
Imdb Picture Title: Urban Justice
Year: 2007
Runtime: 96 minutes
Votes: 4576
Rating: 5.4/10
Language: English
Country: USA
All Genres: Action, Crime, Thriller
Plot Outline: Seagal plays a man with a dark and violent past, who seeks revenge for the murder of his son.
Tagline: When revenge is personal, justice can be brutal.
Director: Don E. FauntLeRoy
Writing By: Gilmar Fortis II,
Produced By: Binh Dang,Phillip B. Goldfine,Joe Halpin,Steven Seagal,Tracee Stanley,William B. Steakley,
Music: Peter Meisner
Cast:
Steven Seagal as Simon Ballister
Eddie Griffin as Armand Tucker
Carmen Serano as Alice Park
Cory Hart as Max Ballister
Liezl Carstens as Linda
Kirk B.R. Woller as Det. Frank Shaw
Mary Evans as Irene
Al Staggs as Priest
Jade Yorker as Gary Morrison
Jermaine Washington as Rasheed
Trailers:
Urban Justice


Details
Name:Urban Justice 2007 720p Esub HD Dual Audio English Hindi GOPISAHI
Description:

Format                         : Matroska
Format version                 : Version 4 / Version 2
File size                      : 801 MiB
Duration                       : 1 h 36 min
Overall bit rate               : 1 163 kb/s
Movie name                     : Urban Justice 2007 GOPISAHI

Video
Format                         : AVC
Codec ID                       : V_MPEG4/ISO/AVC
Duration                       : 1 h 36 min
Bit rate                       : 900 kb/s
Width                          : 1 280 pixels
Height                         : 720 pixels
Display aspect ratio           : 16:9
Frame rate mode                : Constant
Frame rate                     : 23.976 (24000/1001) FPS
Stream size                    : 620 MiB (77%)
Writing library                : x264

Audio #1
Format                         : AAC
Duration                       : 1 h 36 min
Bit rate                       : 89.0 kb/s
Channel(s)                     : 6 channels
Channel positions              : Front: L C R, Side: L R, LFE
Sampling rate                  : 44.1 kHz
Frame rate                     : 43.066 FPS (1024 SPF)
Stream size                    : 61.3 MiB (8%)
Language                       : Hindi

Audio #2
Format                         : AAC
Duration                       : 1 h 36 min
Bit rate                       : 84.3 kb/s
Channel(s)                     : 6 channels
Channel positions              : Front: L C R, Side: L R, LFE
Sampling rate                  : 44.1 kHz
Frame rate                     : 43.066 FPS (1024 SPF)
Stream size                    : 58.0 MiB (7%)
Language                       : English

Audio #3
Format                         : AAC
Duration                       : 1 h 36 min
Bit rate                       : 86.8 kb/s
Channel(s)                     : 6 channels
Channel positions              : Front: L C R, Side: L R, LFE
Sampling rate                  : 44.1 kHz
Frame rate                     : 43.066 FPS (1024 SPF)
Compression mode               : Lossy
Stream size                    : 59.8 MiB (7%)
Language                       : Russian

Text
Language                       : English


Category:Movies > Hollywood Dub
Lang:Hindi
Total Size:801.08 MB

:download:

|| Download This Movie Via Single Resumable Links Size: 801 MB ||

Direct-1 Google Drive | Direct-2 | Direct-3 |

Watch Online Click Here

No comments:

Post a Comment