STAY WITH US

header ads

Zeher (2005) Hindi 720p WEB-DL x264 AAC


Poster


iMDB
Imdb Picture Title: Zeher
Year: 2005
Runtime: 132 minutes
Votes: 1461
Rating: 5.4/10
Language: Hindi
Country: India
All Genres: Crime, Drama, Mystery, Thriller
Plot Outline: Siddharth and Sonia are happily married to each other until Anna walks into Siddharth's life. Things takes a worst turn, when Anna gets killed and Siddharth finds himself in deep trouble.
Tagline: A love story
Director: Mohit Suri
Writing By: Mahesh Bhatt,
Produced By: Mukesh Bhatt,Dilip Borkar,
Music: Roop Kumar Rathod
Cast:
Emraan Hashmi as Siddharth Mehra
Shamita Shetty as Sonia Mehra
Udita Goswami as Anna Verghese
Sameer Kochhar as Sean Verghese
Ninad Kamat as
Meera as Woh Lamhe Remix Video
Anup J. Patel as Art Gallery Owner
Vishwajeet Pradhan as Narcotics Inspector Shah


Details
Name:Zeher 2005 Hindi 720p WEB-DL x264 AAC { TaRa }
Description:
Zeher 2005 Hindi 720p WEB-DL x264 AAC { TaRa }.mkv

5934



===================================================================
General
Complete name : Zeher 2005 Hindi 720p WEB-DL x264 AAC { TaRa }.mkv
Format : Matroska
Format version : Version 4 / Version 2
File size : 884 MiB
Duration : 2 h 13 min
Overall bit rate : 929 kb/s
===================================================================
Video
ID : 1
Format : AVC
Format/Info : Advanced Video Codec
Format profile : Main@L3.1
Format settings : CABAC / 3 Ref Frames
Format settings, CABAC : Yes
Format settings, RefFrames : 3 frames
Codec ID : V_MPEG4/ISO/AVC
Duration : 2 h 13 min
Bit rate : 801 kb/s
Width : 1 280 pixels
Height : 544 pixels
Display aspect ratio : 2.35:1
Frame rate mode : Constant
Frame rate : 23.976 (24000/1001) FPS
Color space : YUV
Chroma subsampling : 4:2:0
Bit depth : 8 bits
Scan type : Progressive
Bits/(Pixel*Frame) : 0.048
Stream size : 762 MiB (86%)
Title : .....::::: TaRa :::::.....
Language : Hindi
Default : Yes
Forced : No
===================================================================
Audio
ID : 2
Format : AAC
Format/Info : Advanced Audio Codec
Format profile : LC
Codec ID : A_AAC-2
Duration : 2 h 13 min
Bit rate : 126 kb/s
Channel(s) : 2 channels
Channel positions : Front: L R
Sampling rate : 44.1 kHz
Frame rate : 43.066 FPS (1024 SPF)
Compression mode : Lossy
Stream size : 119 MiB (14%)
Title : .....::::: TaRa :::::.....
Language : Hindi
Default : Yes
Forced : No
=================================================================== 




Category:Movies > Bollywood
Lang:Hindi
Total Size:884.18 MB

:download:

|| Download This Movie Via Single Resumable Links Size: 909 MB ||

Direct-1 Google Drive | Direct-2 | Direct-3 |

Watch Online Click Here

Post a Comment

0 Comments