Crazy World Only 4 You

Sorry For The Inconvenience. If You are facing link dead or no google drive file access then inform us via comment

Latest Updates

Monday, 5 February 2018

Bad Boys II (2003) BRRip 720p x264 [Hindi DD 5.1 - Eng DD 2.0] Esub- AbhiSona


Poster


iMDB
Imdb Picture Title: Bad Boys II
Year: 2003
Runtime: 147 minutes
Votes: 186944
Rating: 6.6/10
Language: English, Spanish
Country: USA
All Genres: Action, Comedy, Crime, Thriller
Plot Outline: Two loose-cannon narcotics cops investigate the flow of Ecstasy into Florida from a Cuban drug cartel.
Director: Michael Bay
Writing By: George Gallo,Marianne Wibberley,Cormac Wibberley,Ron Shelton,Ron Shelton,Jerry Stahl,
Produced By: Jerry Bruckheimer,Matthew Cohan,Don Ferrarone,Chad Oman,Pat Sandston,Mike Stenson,Barry H. Waldman,
Music: Trevor Rabin
Plot:
Narcotics cops Mike Lowrey (Will Smith) and Marcus Burnett (Martin Lawrence) head up a task force investigating the flow of ecstasy into Miami. Their search leads to a dangerous kingpin Johnny Tapia (Jordi MollĂ ), whose plan to control the city's drug traffic has touched off an underground war. Meanwhile, things get sexy between Mike and Syd (Gabrielle Union), Marcus's sister.
- Written by Anonymous
Mike Lowrey (Will Smith) and Marcus Burnett (Martin Lawrence), who are part of the Miami PD's Tactical Narcotics Team (TNT), still don't always get along, and now they're keeping secrets from each other. Mike's secret is that he's been seeing Marcus' sister, Sydney "Syd" Burnett (Gabrielle Union) who is a reported paper pusher for the DEA's New York office. Marcus's secret is that he has asked for a transfer, because he wants to spend more time with his family, and less time with Mike. That's all set aside when their boss, Captain Howard (Joe Pantoliano) assigns them to stop the flow of record amounts of ecstasy into the city. This puts Mike and Marcus on the trail of the most dangerous enemy that they have ever faced...Cuban drug kingpin Hector Juan Carlos "Johnny" Tapia, who wants to take control of the entire ecstasy trade in the USA, and is working with local dealers and club owners such as Russian mafia boss Alexei. Every time the Miami PD has ever arrested Tapia, Tapia has sued the Miami PD for false arrest, and won millions of dollars. This has caused the department to back off and not go after Tapia. Well, everyone has backed off except for Mike and Marcus, who have never faced Tapia before. Now, it seems that Tapia is using a mortuary as a cover for his operations, smuggling ecstasy hidden inside dead bodies, while sending his money to Cuba in hidden compartments in the coffins. While Mike and Marcus try to bring Tapia down, they also deal with the discovery that Syd is actually working undercover for the DEA to bring down a money laundering operation run by Alexei, and as part of her undercover job, Syd is in deep with Tapia. When Haitian gangsters try to steal Tapia's money and kill Syd, the two investigations cross paths. Syd's cover is later blown, and she is kidnapped by Tapia, who takes her to his compound in Cuba. With the unofficial help of people from the CIA, the Miami PD, and anti-Castro forces in Cuba, Mike and Marcus head out to rescue Syd, and bring Tapia down. How far will Tapia go to keep his drug empire? And how far will Marcus and Mike go to rescue Syd?
- Written by Todd Baldridge
Two loose-cannon narcotics cops investigate the flow of Ecstasy into Florida from a Cuban drug cartel.
- Written by Anonymous
Cast:
Martin Lawrence as Detective Marcus Burnett
Will Smith as Detective Mike Lowrey
Jordi MollĂ  as Hector Juan Carlos 'Johnny' Tapia
Gabrielle Union as Syd
Peter Stormare as Alexei
Theresa Randle as Theresa
Joe Pantoliano as Captain Howard
Michael Shannon as Floyd Poteet
Jon Seda as Roberto
Yul Vazquez as Detective Mateo Reyes



Details
Name:Bad Boys II (2003) 720p BRRip x264 [Hindi DD 5.1 -Eng DD 2.0] Esub- AbhiSona
Description:
Bad Boys II (2003) 720p BRRip x264 [Hindi DD 5.1 -Eng DD 2.0] Esub- AbhiSona


f32bb34e7f9606f5650cf0e46b745a46.png

General

Format                                   : Matroska
Format version                           : Version 4 / Version 2
File size                                : 1.22 GiB
Duration                                 : 2 h 26 min
Overall bit rate                         : 1 193 kb/s
Movie name                               : Bad Boys II (2003) 720p BRRip x264 [Hindi DD 5.1 -Eng DD 2.0] Esub- AbhiSona
Encoded date                             : UTC 2017-12-29 14:18:52
Writing application                      : mkvmerge v19.0.0 ('Brave Captain') 32-bit
Writing library                          : libebml v1.3.5 + libmatroska v1.4.8

Video

ID                                       : 2
Format                                   : AVC
Format/Info                              : Advanced Video Codec
Format profile                           : High@L4
Format settings, CABAC                   : Yes
Format settings, ReFrames                : 9 frames
Codec ID                                 : V_MPEG4/ISO/AVC
Duration                                 : 2 h 26 min
Bit rate                                 : 712 kb/s
Width                                    : 1 280 pixels
Height                                   : 704 pixels
Display aspect ratio                     : 16:9
Frame rate mode                          : Constant
Frame rate                               : 23.976 (24000/1001) FPS
Color space                              : YUV
Chroma subsampling                       : 4:2:0
Bit depth                                : 8 bits
Scan type                                : Progressive
Bits/(Pixel*Frame)                       : 0.033
Stream size                              : 746 MiB (60%)
Title                                    : Bad Boys II (2003) 720p BRRip x264 [Hindi DD 5.1 -Eng DD 2.0] Esub- AbhiSona
Writing library                          : x264 core 125 r2200 999b753
Encoding settings                        : cabac=1 / ref=9 / deblock=1:0:0 / analyse=0x3:0x113 / me=hex / subme=7 / psy=1 / psy_rd=1.00:0.00 / mixed_ref=1 / me_range=16 / chroma_me=1 / trellis=1 / 8x8dct=1 / cqm=0 / deadzone=21,11 / fast_pskip=1 / chroma_qp_offset=-2 / threads=6 / lookahead_threads=1 / sliced_threads=0 / nr=0 / decimate=1 / interlaced=0 / bluray_compat=0 / constrained_intra=0 / bframes=8 / b_pyramid=2 / b_adapt=1 / b_bias=0 / direct=1 / weightb=1 / open_gop=0 / weightp=2 / keyint=240 / keyint_min=23 / scenecut=40 / intra_refresh=0 / rc_lookahead=40 / rc=2pass / mbtree=1 / bitrate=712 / ratetol=1.0 / qcomp=0.60 / qpmin=10 / qpmax=51 / qpstep=4 / cplxblur=20.0 / qblur=0.5 / ip_ratio=1.40 / aq=1:1.00
Language                                 : English
Default                                  : Yes
Forced                                   : No

Audio #1

ID                                       : 1
Format                                   : AC-3
Format/Info                              : Audio Coding 3
Format settings, Endianness              : Big
Codec ID                                 : A_AC3
Duration                                 : 2 h 26 min
Bit rate mode                            : Constant
Bit rate                                 : 384 kb/s
Channel(s)                               : 6 channels
Channel positions                        : Front: L C R, Side: L R, LFE
Sampling rate                            : 48.0 kHz
Frame rate                               : 31.250 FPS (1536 spf)
Bit depth                                : 16 bits
Compression mode                         : Lossy
Delay relative to video                  : 917 ms
Stream size                              : 403 MiB (32%)
Title                                    : AbhiSona - Hindi
Language                                 : Hindi
Service kind                             : Complete Main
Default                                  : Yes
Forced                                   : No

Audio #2

ID                                       : 3
Format                                   : AAC
Format/Info                              : Advanced Audio Codec
Format profile                           : LC
Codec ID                                 : A_AAC
Duration                                 : 2 h 26 min
Bit rate                                 : 96.0 kb/s
Channel(s)                               : 2 channels
Channel positions                        : Front: L R
Sampling rate                            : 48.0 kHz
Frame rate                               : 46.875 FPS (1024 spf)
Compression mode                         : Lossy
Delay relative to video                  : -83 ms
Stream size                              : 101 MiB (8%)
Title                                    : AbhiSona - English
Language                                 : English
Default                                  : No
Forced                                   : No

Text

ID                                       : 4
Format                                   : UTF-8
Codec ID                                 : S_TEXT/UTF8
Codec ID/Info                            : UTF-8 Plain Text
Duration                                 : 2 h 20 min
Bit rate                                 : 69 b/s
Count of elements                        : 1915
Stream size                              : 71.8 KiB (0%)
Title                                    : AbhiSona
Language                                 : English
Default                                  : Yes
Forced                                   : No
 
34c8f1fb7331139854b161bd983db42b.jpg
Category:Movies > Hollywood Dub
Lang:Hindi
Total Size:1.22 GB



Sample
:download:

|| Download This Movie Via Single Resumable Links Size: 1.22 GB ||

Direct-1 Google Drive | Direct-2 | Direct-3 |

Watch Online Click Here

No comments:

Post a Comment