Crazy World Only 4 You

Sorry For The Inconvenience. If You are facing link dead or no google drive file access then inform us via comment

Latest Updates

Friday, 9 February 2018

Kubo and the Two Strings (2016) BluRay 720p x264 Dual Audio AAC 5.1 [Hindi - English] - KartiKing


Poster


iMDB
Imdb Picture Title: Kubo and the Two Strings
Year: 2016
Runtime: 101 minutes
Votes: 88606
Rating: 7.8/10
Language: English
Country: USA
All Genres: Animation, Adventure, Family, Fantasy
Plot Outline: A young boy named Kubo must locate a magical suit of armour worn by his late father in order to defeat a vengeful spirit from the past.
Tagline: The quest begins
Director: Travis Knight
Writing By: Marc Haimes,Chris Butler,Shannon Tindle,Marc Haimes,
Produced By: Travis Knight,Jocelyn Pascall,Arianne Sutner,
Music: Dario Marianelli
Cast:
Art Parkinson as Kubo
Charlize Theron as Monkey
Ralph Fiennes as Moon King
Brenda Vaccaro as Kameyo
Cary-Hiroyuki Tagawa as Hashi
Meyrick Murphy as Mari
George Takei as Hosato
Rooney Mara as The Sisters
Matthew McConaughey as Beetle
Minae Noji as Minae
Trailers:
Trailer #3
New Trailer
Trailer #1
International Trailer

Details
Name:Kubo and the Two Strings (2016) BluRay 720p x264 Dual Audio AAC 5.1 [Hindi - English] - KartiKi...
Description:
Kubo and the Two Strings (2016) BluRay 720p x264 Dual Audio AAC 5.1 [Hindi - English] - KartiKing

 


-: INFO :-

General

Format                                    : Matroska
Format version                            : Version 4 / Version 2
File size                                 : 1.11 GiB
Duration                                  : 1 h 41 min
Overall bit rate                          : 1 565 kb/s
Movie name                                : Kubo and the Two Strings 2016 - KartiKing
Encoded date                              : UTC 2017-01-15 17:08:29
Writing application                       : mkvmerge v9.7.1 ('Pandemonium') 64bit
Writing library                           : libebml v1.3.4 + libmatroska v1.4.5

Video

ID                                        : 1
Format                                    : AVC
Format/Info                               : Advanced Video Codec
Format settings, CABAC                    : Yes
Format settings, ReFrames                 : 5 frames
Codec ID                                  : V_MPEG4/ISO/AVC
Duration                                  : 1 h 41 min
Bit rate                                  : 1 118 kb/s
Width                                     : 1 280 pixels
Height                                    : 536 pixels
Display aspect ratio                      : 2.40:1
Frame rate mode                           : Constant
Frame rate                                : 23.976 (24000/1001) FPS
Color space                               : YUV
Chroma subsampling                        : 4:2:0
Bit depth                                 : 8 bits
Scan type                                 : Progressive
Bits/(Pixel*Frame)                        : 0.068
Stream size                               : 813 MiB (71%)
Title                                     : KartiKing
Default                                   : Yes
Forced                                    : No

Audio #1

ID                                        : 2
Format                                    : AAC
Format/Info                               : Advanced Audio Codec
Format profile                            : LC
Codec ID                                  : A_AAC
Duration                                  : 1 h 41 min
Bit rate                                  : 220 kb/s
Channel(s)                                : 6 channels
Channel positions                         : Front: L C R, Side: L R, LFE
Sampling rate                             : 48.0 kHz
Frame rate                                : 46.875 FPS (1024 spf)
Compression mode                          : Lossy
Delay relative to video                   : 9 ms
Stream size                               : 160 MiB (14%)
Title                                     : English 224kbps 6Ch KartiKing
Language                                  : English
Default                                   : No
Forced                                    : No

Audio #2

ID                                        : 4
Format                                    : AC-3
Format/Info                               : Audio Coding 3
Mode extension                            : CM (complete main)
Format settings, Endianness               : Big
Codec ID                                  : A_AC3
Duration                                  : 1 h 41 min
Bit rate mode                             : Constant
Bit rate                                  : 224 kb/s
Channel(s)                                : 6 channels
Channel positions                         : Front: L C R, Side: L R, LFE
Sampling rate                             : 48.0 kHz
Frame rate                                : 31.250 FPS (1536 spf)

                   
Category:Movies > Hollywood Dub
Lang:Hindi
Total Size:1.13 GB



Sample
:download:

|| Download This Movie Via Single Resumable Links Size: 1.11 GB ||

Direct-1 Google Drive | Direct-2 | Direct-3 |

Watch Online Click Here

No comments:

Post a Comment