Love Happens (2009) BluRay 720p Dual Audio [English + Hindi] x264


Poster


iMDB
Imdb Picture Title: Love Happens
Year: 2009
Runtime: 109 minutes
Votes: 27394
Rating: 5.6/10
Language: English
Country: USA, Canada, UK
All Genres: Drama, Romance
Plot Outline: A widower whose book about coping with loss turns him into a best-selling self-help guru, falls for the hotel florist where his seminar is given, only to learn that he hasn't yet truly confronted his wife's passing.
Tagline: Sometimes when you least expect it...
Director: Brandon Camp
Writing By: Brandon Camp,Mike Thompson,
Produced By: J. Miles Dale,Alexa Faigen,Ryan Kavanaugh,Richard Solomon,Scott Stuber,Mike Thompson,
Music: Andrew Spence Christopher Young
Cast:
Aaron Eckhart as Burke
Jennifer Aniston as Eloise
Dan Fogler as Lane
John Carroll Lynch as Walter
Martin Sheen as Burke's Father-in-Law
Judy Greer as Marty
Frances Conroy as Eloise's Mom
Joe Anderson as Tyler
Sasha Alexander as Photographer
Clyde Kusatsu as Cab Driver
Trailers:
Love Happens


Details
Name:Love Happens 2009 720p Esub BlyRay Dual Audio English Hindi GOPISAHI
Description:

Format                         : Matroska
Format version                 : Version 4 / Version 2
File size                      : 604 MiB
Duration                       : 1 h 49 min
Overall bit rate               : 774 kb/s
Movie name                     : Love Happens 2009

Video
Format                         : AVC
Codec ID                       : V_MPEG4/ISO/AVC
Duration                       : 1 h 49 min
Bit rate                       : 600 kb/s
Width                          : 1 280 pixels
Height                         : 688 pixels
Display aspect ratio           : 1.85:1
Frame rate mode                : Constant
Frame rate                     : 23.976 (24000/1001) FPS
Stream size                    : 468 MiB (77%)
Writing library                : x264 core 155 r2893 b00bcaf

Audio #1
Format                         : AAC
Duration                       : 1 h 47 min
Bit rate                       : 86.0 kb/s
Channel(s)                     : 6 channels
Channel positions              : Front: L C R, Side: L R, LFE
Sampling rate                  : 44.1 kHz
Frame rate                     : 43.066 FPS (1024 SPF)
Stream size                    : 66.0 MiB (11%)
Language                       : English

Audio #2
Format                         : AAC
Duration                       : 1 h 47 min
Bit rate                       : 88.7 kb/s
Channel(s)                     : 6 channels
Channel positions              : Front: L C R, Side: L R, LFE
Sampling rate                  : 44.1 kHz
Frame rate                     : 43.066 FPS (1024 SPF)
Compression mode               : Lossy
Stream size                    : 68.0 MiB (11%)
Language                       : Hindi

Text
Language                       : English


Category:Movies > Hollywood Dub
Lang:Hindi
Total Size:604.42 MB



:download:

|| Download This Movie Via Single Resumable Links Size: 604 MB ||

Direct-1 Google Drive | Direct-2 | Direct-3 |

Watch Online Click Here

Post a Comment

0 Comments