Paranormal Activity 1 (2007) BluRay 720p x264 AC3 Dual Audio [Hindi + English] 950MB


Poster


iMDB
Imdb Picture Title: Paranormal Activity
Year: 2007
Runtime: 86 minutes
Votes: 194081
Rating: 6.3/10
Language: English
Country: USA
All Genres: Horror, Mystery, Thriller
Plot Outline: After moving into a suburban home, a couple becomes increasingly disturbed by a nightly demonic presence.
Tagline: Dare you experience the U.S. phenomenon? (UK quad poster)
Director: Oren Peli
Writing By: Oren Peli,
Produced By: Jason Blum,Oren Peli,Steven Schneider,Jeanette Brill,Rick Osako,Amir Zbeda,
Plot:
After a young, middle class couple moves into a suburban 'starter' tract house, they become increasingly disturbed by a presence that may or may not be somehow demonic but is certainly most active in the middle of the night. Especially when they sleep. Or try to.
- Written by Paramount Pictures
A young couple, Katie and Micah, move into a new home and Micah records their life on his video camera. After strange events in the night, Katie admits that as a young child, she had once experienced a ghostly presence in her room. She sensed its malevolence and now worries that it may now have followed her to their new place. Micah is skeptical and sets up his camera in their bedroom to record any overnight activity. After a few days, they see their bedroom door move and it's clear there is a presence in their house. Much worse is yet to come.
- Written by garykmcd
Katie and her boyfriend Micah have been living together for three years and out of the blue, they are haunted by an entity while they are sleeping. Katie discloses to Micah that she has been haunted since she was eight year-old. The skeptical Micah buys a camera to videotape the paranormal activity in their home during the night. Katie calls Fredrichs, to help them, but he explains that he is specialist in ghosts. However he feels the presence of a fiend and advises the couple to call a friend of his.
- Written by Claudio Carvalho, Rio de Janeiro, Brazil
After moving into a suburban home, a couple becomes increasingly disturbed by a nightly demonic presence.
- Written by Anonymous
Cast:
Katie Featherston as Katie
Micah Sloat as Micah
Mark Fredrichs as Psychic
Amber Armstrong as Amber
Ashley Palmer as Diane
Crystal Cartwright as Exorcism Nanny
Spencer Marks as Dr. Johann Averies
Randy McDowell as Lt. Randy Hudson
James Piper as Richard
Trailers:
Paranormal Activity: Trailer #2
Paranormal Activity



Details
Name:Paranormal Activity 1 (2007) BluRay 720p x264 AC3 Dual Audio [Hindi + English] 950MB [CraZzyBoY]
Description:
Paranormal Activity 1 (2007) BluRay 720p x264 AC3 Dual Audio [Hindi + English] 950MB [CraZzyBoY]  

91pQizkoEXL._SL1500_.jpg

General

Format                      : Matroska
Format version              : Version 4 / Version 2
File size                   : 949 MiB
Duration                    : 1 h 31 min
Overall bit rate            : 1 451 kb/s
Movie name                  : Paranormal Activity 1 (2007) 720p BluRay x264 AC3 Dual Audio [Hindi + English] 950MB [CraZzyBoY]
Encoded date                : UTC 2018-01-09 09:36:15
Writing application         : mkvmerge v19.0.0 ('Brave Captain') 64-bit
Writing library             : libebml v1.3.5 + libmatroska v1.4.8

Video

ID                          : 3
Format                      : AVC
Format/Info                 : Advanced Video Codec
Format profile              : High@L4.1
Format settings             : 8 Ref Frames
Format settings, CABAC      : No
Format settings, ReFrames   : 8 frames
Codec ID                    : V_MPEG4/ISO/AVC
Duration                    : 1 h 31 min
Bit rate                    : 1 150 kb/s
Width                       : 1 280 pixels
Height                      : 720 pixels
Display aspect ratio        : 16:9
Frame rate mode             : Constant
Frame rate                  : 23.976 (24000/1001) FPS
Color space                 : YUV
Chroma subsampling          : 4:2:0
Bit depth                   : 8 bits
Scan type                   : Progressive
Bits/(Pixel*Frame)          : 0.052
Stream size                 : 718 MiB (76%)
Language                    : English
Default                     : Yes
Forced                      : No
Color range                 : Limited
Color primaries             : BT.709
Transfer characteristics    : BT.709
Matrix coefficients         : BT.709

Audio #1

ID                          : 2
Format                      : AC-3
Format/Info                 : Audio Coding 3
Codec ID                    : A_AC3
Duration                    : 1 h 31 min
Bit rate mode               : Constant
Bit rate                    : 224 kb/s
Channel(s)                  : 2 channels
Channel positions           : Front: L R
Sampling rate               : 48.0 kHz
Frame rate                  : 31.250 FPS (1536 SPF)
Bit depth                   : 16 bits
Compression mode            : Lossy
Delay relative to video     : -5 ms
Stream size                 : 147 MiB (15%)
Language                    : Hindi
Service kind                : Complete Main
Default                     : Yes
Forced                      : No

Audio #2

ID                          : 4
Format                      : AAC
Format/Info                 : Advanced Audio Codec
Format profile              : LC
Codec ID                    : A_AAC-2
Duration                    : 1 h 31 min
Bit rate                    : 127 kb/s
Channel(s)                  : 2 channels
Channel positions           : Front: L R
Sampling rate               : 48.0 kHz
Frame rate                  : 46.875 FPS (1024 SPF)
Compression mode            : Lossy
Delay relative to video     : -21 ms
Stream size                 : 83.4 MiB (9%)
Language                    : English
Default                     : No
Forced                      : No

Text

ID                          : 1
Format                      : UTF-8
Codec ID                    : S_TEXT/UTF8
Codec ID/Info               : UTF-8 Plain Text
Duration                    : 10 s 0 ms
Bit rate                    : 260 b/s
Count of elements           : 4
Stream size                 : 326 Bytes (0%)
Language                    : English
Default                     : Yes
Forced                      : No



2971edd9ec20872f00d40206f0ad0cc7.th.png c13c02fb1c0ff5beafcbea510c22c649.th.png 985bfcc23d1e8f82555833f30d70eb97.th.png d33f8ab0902bb4a75b7358bd2151559f.th.png 23b667e06450cad3cf6414b0dbf18e86.th.png a539e6836b3074c8dc458c4d552fb694.th.png
Category:Movies > Hollywood Dub
Lang:Hindi
Total Size:971.16 MB



Sample
:download:

|| Download This Movie Via Single Resumable Links Size: 949 MB ||

Direct-1 Google Drive | Direct-2 | Direct-3 |

Watch Online Click Here

Post a Comment

0 Comments