Paranormal Activity 2 (2010) UNRATED 720p BluRay x264 Dual Audio [Hindi + English] AC3 E-Subs


Poster


iMDB
Imdb Picture Title: Paranormal Activity 2
Year: 2010
Runtime: 91 minutes
Votes: 86630
Rating: 5.7/10
Language: English, Spanish
Country: USA
All Genres: Horror
Plot Outline: After experiencing what they think are a series of "break-ins", a family sets up security cameras around their home, only to realize that the events unfolding before them are more sinister than they seem.
Tagline: In 2009 you demanded it. Nothing can prepare you for what's next.
Director: Tod Williams
Writing By: Michael R. Perry,Christopher Landon,Tom Pabst,Michael R. Perry,Oren Peli,
Produced By: Jason Blum,Jeanette Brill,Akiva Goldsman,Oren Peli,Steven Schneider,
Plot:
Daniel Rey along with his wife, Kristi; daughter, Ali; toddler son, Hunter, and their dog, move to Carlsbad, California. A few days later their residence is broken into, however, nothing appears to be missing. In order to prevent re-occurrences, they install a number of security cameras that will record everything on a DVR. After they hire a Spanish-speaking nanny to look after Hunter, she informs them that there is something wrong in their house and performs prayers, much to the chagrin of Daniel, who lets her go. He will subsequently regret this decision as more inexplicable and strange incidents occur, with Ali concluding, after a research, that their house may be possessed by a demonic entity.
- Written by rAjOo (gunwanti@hotmail.com)
After experiencing what they think are a series of "break-ins", a family sets up security cameras around their home, only to realize that the events unfolding before them are more sinister than they seem.
- Written by Liam Austen
Cast:
David Bierend as Surveillance Camera Expert
Brian Boland as Daniel Rey
Molly Ephraim as Ali Rey
Katie Featherston as Katie
Seth Ginsberg as Brad
Sprague Grayden as Kristi Rey
William Juan Prieto as Hunter Rey
Jackson Xenia Prieto as Hunter Rey
Micah Sloat as Micah
Vivis Colombetti as Martine
Trailers:
Paranormal Activity 2 -- Fan Trailer
Paranormal Activity 2: Trailer #1



Details
Name:Paranormal Activity 2 (2010) UNRATED 720p BluRay x264 Dual Audio [Hindi + English] AC3 E-Subs
Description:
Paranormal Activity 2 (2010) UNRATED 720p BluRay x264 Dual Audio [Hindi + English] AC3 E-Subs

NEgi_YNSnf6wmjo_1_1

General

Format                      : Matroska
Format version              : Version 4 / Version 2
File size                   : 969 MiB
Duration                    : 1 h 38 min
Overall bit rate            : 1 381 kb/s
Movie name                  : Paranormal Activity 2 (2010) UNRATED 720p BluRay x264 AC3 E-Subs Dual Audio [Hindi + English] 970MB [CraZzyBoY]
Encoded date                : UTC 2018-01-09 14:37:29
Writing application         : mkvmerge v19.0.0 ('Brave Captain') 64-bit
Writing library             : libebml v1.3.5 + libmatroska v1.4.8

Video

ID                          : 1
Format                      : AVC
Format/Info                 : Advanced Video Codec
Format profile              : High@L4.1
Format settings             : 8 Ref Frames
Format settings, CABAC      : No
Format settings, ReFrames   : 8 frames
Codec ID                    : V_MPEG4/ISO/AVC
Duration                    : 1 h 38 min
Bit rate                    : 1 057 kb/s
Width                       : 1 280 pixels
Height                      : 720 pixels
Display aspect ratio        : 16:9
Frame rate mode             : Constant
Frame rate                  : 23.976 (24000/1001) FPS
Color space                 : YUV
Chroma subsampling          : 4:2:0
Bit depth                   : 8 bits
Scan type                   : Progressive
Bits/(Pixel*Frame)          : 0.048
Stream size                 : 721 MiB (74%)
Writing library             : x264 core 142 r2479 dd79a61
Encoding settings           : cabac=0 / ref=8 / deblock=1:0:0 / analyse=0x3:0x133 / me=umh / subme=9 / psy=1 / psy_rd=1.00:0.00 / mixed_ref=1 / me_range=16 / chroma_me=1 / trellis=2 / 8x8dct=1 / cqm=0 / deadzone=21,11 / fast_pskip=1 / chroma_qp_offset=-2 / threads=24 / lookahead_threads=2 / sliced_threads=0 / nr=0 / decimate=1 / interlaced=0 / bluray_compat=0 / constrained_intra=0 / bframes=3 / b_pyramid=2 / b_adapt=2 / b_bias=0 / direct=3 / weightb=1 / open_gop=0 / weightp=2 / keyint=240 / keyint_min=24 / scenecut=40 / intra_refresh=0 / rc_lookahead=60 / rc=abr / mbtree=1 / bitrate=1057 / ratetol=1.0 / qcomp=0.60 / qpmin=0 / qpmax=69 / qpstep=4 / vbv_maxrate=62500 / vbv_bufsize=78125 / nal_hrd=none / filler=0 / ip_ratio=1.40 / aq=1:1.00
Language                    : English
Default                     : Yes
Forced                      : No
Color range                 : Limited
Color primaries             : BT.709
Transfer characteristics    : BT.709
Matrix coefficients         : BT.709

Audio #1

ID                          : 2
Format                      : AC-3
Format/Info                 : Audio Coding 3
Codec ID                    : A_AC3
Duration                    : 1 h 38 min
Bit rate mode               : Constant
Bit rate                    : 224 kb/s
Channel(s)                  : 2 channels
Channel positions           : Front: L R
Sampling rate               : 48.0 kHz
Frame rate                  : 31.250 FPS (1536 SPF)
Bit depth                   : 16 bits
Compression mode            : Lossy
Delay relative to video     : -5 ms
Stream size                 : 157 MiB (16%)
Language                    : Hindi
Service kind                : Complete Main
Default                     : Yes
Forced                      : No

Audio #2

ID                          : 3
Format                      : AAC
Format/Info                 : Advanced Audio Codec
Format profile              : LC
Codec ID                    : A_AAC-2
Duration                    : 1 h 38 min
Bit rate                    : 128 kb/s
Channel(s)                  : 2 channels
Channel positions           : Front: L R
Sampling rate               : 48.0 kHz
Frame rate                  : 46.875 FPS (1024 SPF)
Compression mode            : Lossy
Delay relative to video     : -21 ms
Stream size                 : 89.6 MiB (9%)
Language                    : English
Default                     : No
Forced                      : No

Text

ID                          : 4
Format                      : UTF-8
Codec ID                    : S_TEXT/UTF8
Codec ID/Info               : UTF-8 Plain Text
Duration                    : 1 h 31 min
Bit rate                    : 55 b/s
Count of elements           : 1042
Stream size                 : 36.9 KiB (0%)
Language                    : English
Default                     : Yes
Forced                      : No


d741ed2943d8ee0f9472051775fb6ec8.th.jpg 1c45417948241352e5692fbd96125ebd.th.jpg 18eaeca9cc1fe6600472dd25321007eb.th.jpg 3a26c8e942e296af04f3d7e32a538996.th.jpg e92b9518703895eeee8239f5c5952686.th.jpg 99c21640ef40a5caad9cdc650e8415dc.th.jpg ef47190fe4c6c343b59136ace73249a9.th.jpg 82fa8765bb352c02eebb605d0a762bc8.th.jpg
Category:Movies > Hollywood Dub
Lang:Hindi
Total Size:982.06 MB



Sample
:download:

|| Download This Movie Via Single Resumable Links Size: 969 MB ||

Direct-1 Google Drive | Direct-2 | Direct-3 |

Watch Online Click Here

Post a Comment

0 Comments