Paranormal Activity 3 (2011) BluRay 720p x264 AC3 Dual Audio [Hindi + English] 716MB


Poster


iMDB
Imdb Picture Title: Paranormal Activity 3
Year: 2011
Runtime: 83 minutes
Votes: 80453
Rating: 5.8/10
Language: English
Country: USA
All Genres: Horror
Plot Outline: In 1988, young sisters Katie and Kristi befriend an invisible entity who resides in their home.
Tagline: It Runs In The Family
Director: Henry Joost
Ariel Schulman
Writing By: Christopher Landon,Oren Peli,
Produced By: Jason Blum,Jeanette Brill,Akiva Goldsman,Christopher Landon,Oren Peli,Gregory Plotkin,Steven Schneider,
Plot:
In 1988, in California, cinematographer Dennis moves to the house of his girlfriend Julie to raise a family with her daughters Katie and Kristi. Little Kristi has an imaginary friend named Toby while weird things happen in the house. Dennis decides to place cameras in the house to capture images during the night and soon he finds that there is an entity in the house. Dennis's friend Randy Rosen (Dustin Ingram) researches the events and learns that his house might be a coven of witches and the children may be in danger.
- Written by Claudio Carvalho, Rio de Janeiro, Brazil
In 1988, young sisters Katie and Kristi befriend an invisible entity who resides in their home.
- Written by IMDb Editors
Cast:
Lauren Bittner as Julie
Christopher Nicholas Smith as Dennis
Chloe Csengery as Katie
Jessica Tyler Brown as Kristi
Hallie Foote as Grandma Lois
Dustin Ingram as Randy Rosen
Johanna Braddy as Lisa
Katie Featherston as Adult Katie
Brian Boland as Daniel
Sprague Grayden as Adult Kristi
Trailers:
U.S. Trailer
Trailer #1



Details
Name:Paranormal Activity 3 (2011) BluRay 720p x264 AC3 Dual Audio [Hindi + English] 716MB
Description:
Paranormal Activity 3 (2011) BluRay 720p x264 AC3 Dual Audio [Hindi + English] 716MB
 

paranormal-activity-3-blu-ray-cover

General

Format                      : Matroska
Format version              : Version 4 / Version 2
File size                   : 716 MiB
Duration                    : 1 h 33 min
Overall bit rate            : 1 066 kb/s
Movie name                  : Paranormal Activity 3 (2011) 720p BluRay x264 AC3 Dual Audio [Hindi + English] 715MB [CraZzyBoY]
Encoded date                : UTC 2018-01-09 09:39:38
Writing application         : mkvmerge v19.0.0 ('Brave Captain') 64-bit
Writing library             : libebml v1.3.5 + libmatroska v1.4.8

Video

ID                          : 1
Format                      : AVC
Format/Info                 : Advanced Video Codec
Format profile              : High@L3.1
Format settings             : CABAC / 5 Ref Frames
Format settings, CABAC      : Yes
Format settings, ReFrames   : 5 frames
Codec ID                    : V_MPEG4/ISO/AVC
Duration                    : 1 h 33 min
Bit rate                    : 828 kb/s
Width                       : 1 280 pixels
Height                      : 720 pixels
Display aspect ratio        : 16:9
Frame rate mode             : Constant
Frame rate                  : 23.976 (24000/1001) FPS
Color space                 : YUV
Chroma subsampling          : 4:2:0
Bit depth                   : 8 bits
Scan type                   : Progressive
Bits/(Pixel*Frame)          : 0.037
Stream size                 : 557 MiB (78%)
Writing library             : x264 core 116 r2074 2641b9e
Encoding settings           : cabac=1 / ref=5 / deblock=1:-2:-1 / analyse=0x3:0x113 / me=umh / subme=8 / psy=1 / psy_rd=1.00:0.00 / mixed_ref=1 / me_range=16 / chroma_me=1 / trellis=1 / 8x8dct=1 / cqm=0 / deadzone=21,11 / fast_pskip=1 / chroma_qp_offset=-2 / threads=12 / sliced_threads=0 / nr=0 / decimate=1 / interlaced=0 / bluray_compat=0 / constrained_intra=0 / bframes=3 / b_pyramid=2 / b_adapt=2 / b_bias=0 / direct=3 / weightb=1 / open_gop=0 / weightp=2 / keyint=250 / keyint_min=23 / scenecut=40 / intra_refresh=0 / rc_lookahead=50 / rc=2pass / mbtree=1 / bitrate=828 / ratetol=1.0 / qcomp=0.60 / qpmin=10 / qpmax=51 / qpstep=4 / cplxblur=20.0 / qblur=0.5 / ip_ratio=1.40 / aq=1:1.00
Language                    : English
Default                     : Yes
Forced                      : No

Audio #1

ID                          : 2
Format                      : AC-3
Format/Info                 : Audio Coding 3
Codec ID                    : A_AC3
Duration                    : 1 h 33 min
Bit rate mode               : Constant
Bit rate                    : 192 kb/s
Channel(s)                  : 6 channels
Channel positions           : Front: L C R, Side: L R, LFE
Sampling rate               : 48.0 kHz
Frame rate                  : 31.250 FPS (1536 SPF)
Bit depth                   : 16 bits
Compression mode            : Lossy
Delay relative to video     : 1 s 500 ms
Stream size                 : 115 MiB (16%)
Language                    : Hindi
Service kind                : Complete Main
Default                     : Yes
Forced                      : No

Audio #2

ID                          : 3
Format                      : AAC
Format/Info                 : Advanced Audio Codec
Format profile              : HE-AAC / LC
Format settings             : Explicit
Codec ID                    : A_AAC-2
Duration                    : 1 h 33 min
Bit rate                    : 64.0 kb/s
Channel(s)                  : 2 channels
Channel positions           : Front: L R
Sampling rate               : 48.0 kHz / 24.0 kHz
Frame rate                  : 23.438 FPS (1024 SPF)
Compression mode            : Lossy
Stream size                 : 43.0 MiB (6%)
Language                    : English
Default                     : No
Forced                      : No

Text

ID                          : 4
Format                      : UTF-8
Codec ID                    : S_TEXT/UTF8
Codec ID/Info               : UTF-8 Plain Text
Duration                    : 1 h 28 min
Bit rate                    : 64 b/s
Count of elements           : 1410
Stream size                 : 41.8 KiB (0%)
Language                    : English
Default                     : Yes
Forced                      : No

94e2d4b1260682cfa23b4e3afb25375b.th.png 1e744f7d9e1f988f0482810b3a6ea87a.th.png e0a30403d25382fe73dbf0dfcfd8da71.th.png 7b5df048be350e006eef2a38dd0b3c79.th.png b924264271987ad2a519ed70ee7a0d8e.th.png 449a38aec857ab3662b8e0b1f2212fc9.th.png feaeb90a800187b4088d7aa4e59036f3.th.png 29f2f7435c334b3fea7aa94772b39c4f.th.png
Category:Movies > Hollywood Dub
Lang:Hindi
Total Size:739.81 MB



Sample
:download:

|| Download This Movie Via Single Resumable Links Size: 716 MB ||

Direct-1 Google Drive | Direct-2 | Direct-3 |

Watch Online Click Here

Post a Comment

0 Comments