Paranormal Activity 4 (2012) BluRay 720p x264 AC3 Dual Audio [Hindi + English] 935MB


Poster


iMDB
Imdb Picture Title: Paranormal Activity 4
Year: 2012
Runtime: 88 minutes
Votes: 54017
Rating: 4.6/10
Language: English, Ukrainian
Country: USA
All Genres: Horror
Plot Outline: It has been five years since the disappearance of Katie and Hunter, and a suburban family witness strange events in their neighborhood when a woman and a mysterious child move in.
Tagline: It's Closer Than You Think
Director: Henry Joost
Ariel Schulman
Writing By: Christopher Landon,Chad Feehan,Oren Peli,
Produced By: Jason Blum,Allegra Clegg,Akiva Goldsman,Christopher Landon,James Moran,Oren Peli,Gregory Plotkin,Steven Schneider,
Plot:
The story takes place in 2011, five years after Katie killed her boyfriend Micah, sister Kristi, her husband Daniel; and took their baby, Hunter. Story focuses on Alex and her family experiencing weird stuff since the new neighbors moved in the town.
- Written by Shk1123
The movie begins with the end of Paranormal Activity 2 (2010). Katie is possessed by a demon, kills her sister Kristi, and runs away with Kristi's son Hunter. The story then jumps ahead five years later and focuses on siblings Alex and Wyatt, Alex's boyfriend Ben, and a frightening little boy across the street named Robbie. Alex and Ben decide to use laptop computers to document the frightening supernatural occurrences that happen when Robbie is around Alex's house. Robbie seems especially interested in Alex's brother Wyatt, and wants what he and Wyatt do to be kept secret from Alex. Alex's parents are too detached to notice the evil emerging around them.
- Written by jwerwin
It has been five years since the disappearance of Katie and Hunter, and a suburban family witness strange events in their neighborhood when a woman and a mysterious child move in.
- Written by Anonymous
Cast:
Katie Featherston as Katie
Kathryn Newton as Alex
Matt Shively as Ben
Aiden Lovekamp as Wyatt
Brady Allen as Robbie
Stephen Dunham as Doug
Alexondra Lee as Holly
Georgica Pettus as Sarah
Alisha Boe as Tara
Brendon Eggertsen as Derek
Trailers:
International Version
International Version #2


Details
Name:Paranormal Activity 4 (2012) BluRay 720p x264 AC3 Dual Audio [Hindi + English] 935MB
Description:
Paranormal Activity 4 (2012) BluRay 720p x264 AC3 Dual Audio [Hindi + English] 935MB
 
01d31a8c366b69ea8a3c57dd5133ea72



General

Format                      : Matroska
Format version              : Version 4 / Version 2
File size                   : 935 MiB
Duration                    : 1 h 27 min
Overall bit rate            : 1 497 kb/s
Movie name                  : Paranormal Activity 4 (2012) 720p BluRay x264 AC3 M-Subs Dual Audio [Hindi + English] 935MB [CraZzyBoY]
Encoded date                : UTC 2018-01-07 12:21:09
Writing application         : mkvmerge v19.0.0 ('Brave Captain') 64-bit
Writing library             : libebml v1.3.5 + libmatroska v1.4.8

Video

ID                          : 1
Format                      : AVC
Format/Info                 : Advanced Video Codec
Format profile              : High@L4.1
Format settings             : 8 Ref Frames
Format settings, CABAC      : No
Format settings, ReFrames   : 8 frames
Codec ID                    : V_MPEG4/ISO/AVC
Duration                    : 1 h 27 min
Bit rate                    : 1 167 kb/s
Width                       : 1 280 pixels
Height                      : 720 pixels
Display aspect ratio        : 16:9
Frame rate mode             : Constant
Frame rate                  : 23.976 (24000/1001) FPS
Color space                 : YUV
Chroma subsampling          : 4:2:0
Bit depth                   : 8 bits
Scan type                   : Progressive
Bits/(Pixel*Frame)          : 0.053
Stream size                 : 703 MiB (75%)
Writing library             : x264 core 142 r2479 dd79a61
Encoding settings           : cabac=0 / ref=8 / deblock=1:0:0 / analyse=0x3:0x133 / me=umh / subme=9 / psy=1 / psy_rd=1.00:0.00 / mixed_ref=1 / me_range=16 / chroma_me=1 / trellis=2 / 8x8dct=1 / cqm=0 / deadzone=21,11 / fast_pskip=1 / chroma_qp_offset=-2 / threads=24 / lookahead_threads=2 / sliced_threads=0 / nr=0 / decimate=1 / interlaced=0 / bluray_compat=0 / constrained_intra=0 / bframes=3 / b_pyramid=2 / b_adapt=2 / b_bias=0 / direct=3 / weightb=1 / open_gop=0 / weightp=2 / keyint=240 / keyint_min=24 / scenecut=40 / intra_refresh=0 / rc_lookahead=60 / rc=abr / mbtree=1 / bitrate=1167 / ratetol=1.0 / qcomp=0.60 / qpmin=0 / qpmax=69 / qpstep=4 / vbv_maxrate=62500 / vbv_bufsize=78125 / nal_hrd=none / filler=0 / ip_ratio=1.40 / aq=1:1.00
Language                    : English
Default                     : Yes
Forced                      : Yes
Color range                 : Limited
Color primaries             : BT.709
Transfer characteristics    : BT.709
Matrix coefficients         : BT.709

Audio #1

ID                          : 2
Format                      : AAC
Format/Info                 : Advanced Audio Codec
Format profile              : LC
Codec ID                    : A_AAC-2
Duration                    : 1 h 27 min
Bit rate                    : 128 kb/s
Channel(s)                  : 2 channels
Channel positions           : Front: L R
Sampling rate               : 48.0 kHz
Frame rate                  : 46.875 FPS (1024 SPF)
Compression mode            : Lossy
Delay relative to video     : -21 ms
Stream size                 : 79.8 MiB (9%)
Language                    : English
Default                     : No
Forced                      : Yes

Audio #2

ID                          : 3
Format                      : AC-3
Format/Info                 : Audio Coding 3
Codec ID                    : A_AC3
Duration                    : 1 h 27 min
Bit rate mode               : Constant
Bit rate                    : 224 kb/s
Channel(s)                  : 6 channels
Channel positions           : Front: L C R, Side: L R, LFE
Sampling rate               : 48.0 kHz
Frame rate                  : 31.250 FPS (1536 SPF)
Bit depth                   : 16 bits
Compression mode            : Lossy
Delay relative to video     : -5 ms
Stream size                 : 140 MiB (15%)
Language                    : Hindi
Service kind                : Complete Main
Default                     : Yes
Forced                      : Yes

Text #1

ID                          : 4
Format                      : PGS
Muxing mode                 : zlib
Codec ID                    : S_HDMV/PGS
Codec ID/Info               : Picture based subtitle format used on BDs/HD-DVDs
Duration                    : 1 h 22 min
Bit rate                    : 33.5 kb/s
Count of elements           : 2168
Stream size                 : 19.7 MiB (2%)
Language                    : English
Default                     : No
Forced                      : Yes

Text #2

ID                          : 5
Format                      : PGS
Muxing mode                 : zlib
Codec ID                    : S_HDMV/PGS
Codec ID/Info               : Picture based subtitle format used on BDs/HD-DVDs
Duration                    : 1 h 27 min
Bit rate                    : 21.9 kb/s
Count of elements           : 2194
Stream size                 : 13.7 MiB (1%)
Language                    : Hindi
Default                     : No
Forced                      : Yes

Text #3

ID                          : 6
Format                      : UTF-8
Codec ID                    : S_TEXT/UTF8
Codec ID/Info               : UTF-8 Plain Text
Duration                    : 10 s 0 ms
Bit rate                    : 260 b/s
Count of elements           : 4
Stream size                 : 326 Bytes (0%)
Language                    : English
Default                     : Yes
Forced                      : Yes


3a45f54c30001ff1f206955eaa0f5646.th.jpg ac06f7cf503fb849fa58c4d9dc8ee226.th.jpg b8e479a3d23fccd093a014adb7e2f078.th.jpg 2f3edfb153a815cf3b27d0a64b687311.th.jpg
Category:Movies > Hollywood Dub
Lang:Hindi
Total Size:950.04 MB



Sample
:download:

|| Download This Movie Via Single Resumable Links Size: 935 MB ||

Direct-1 Google Drive | Direct-2 | Direct-3 |

Watch Online Click Here

Post a Comment

0 Comments