Paranormal Activity 5 The Marked Ones (2014) BluRay 720p x264 AC3 Dual Audio [Hindi + English] 920MB


Poster


iMDB
Imdb Picture Title: Paranormal Activity: The Ghost Dimension
Year: 2015
Runtime: 88 minutes
Votes: 20061
Rating: 4.6/10
Language: English, German, Ukrainian
Country: USA
All Genres: Horror
Plot Outline: Using a special camera that can see spirits, a family must protect their daughter from an evil entity with a sinister plan.
Tagline: Every secret will be revealed.
Director: Gregory Plotkin
Writing By: Jason Pagan,Andrew Deutschman,Adam Robitel,Gavin Heffernan,Brantley Aufill,Jason Pagan,Andrew Deutschman,Oren Peli,
Produced By: Jason Blum,Steven R. Molen,Oren Peli,Steven Schneider,
Cast:
Chris J. Murray as Ryan
Brit Shaw as Emily
Ivy George as Leila
Dan Gill as Mike
Olivia Taylor Dudley as Skyler
Chloe Csengery as Katie
Jessica Tyler Brown as Kristi
Don McManus as Kent
Michael Krawic as Father Todd
Hallie Foote as Grandma Lois
Trailers:
Theatrical Trailer
Trailer #1


    

Details
Name:Paranormal Activity 5 The Marked Ones (2014) BluRay 720p x264 AC3 Dual Audio [Hindi + English] 920MB
Description:
Paranormal Activity 5 The Marked Ones (2014) BluRay 720p x264 AC3 Dual Audio [Hindi + English] 920MB

PATMO_1_DISC_BD_RETAIL_3_D.jpg.r300
General

Format                      : Matroska
Format version              : Version 4 / Version 2
File size                   : 919 MiB
Duration                    : 1 h 24 min
Overall bit rate            : 1 526 kb/s
Movie name                  : Paranormal Activity 5 The Marked Ones (2014) 720p BluRay x264 AC3 M-Subs Dual Audio [Hindi + English] 920MB [CraZzyBoY]
Encoded date                : UTC 2018-01-09 10:03:58
Writing application         : mkvmerge v19.0.0 ('Brave Captain') 64-bit
Writing library             : libebml v1.3.5 + libmatroska v1.4.8

Video

ID                          : 4
Format                      : AVC
Format/Info                 : Advanced Video Codec
Format profile              : High@L4.1
Format settings             : 8 Ref Frames
Format settings, CABAC      : No
Format settings, ReFrames   : 8 frames
Codec ID                    : V_MPEG4/ISO/AVC
Duration                    : 1 h 24 min
Bit rate                    : 1 150 kb/s
Nominal bit rate            : 1 223 kb/s
Width                       : 1 280 pixels
Height                      : 720 pixels
Display aspect ratio        : 16:9
Frame rate mode             : Constant
Frame rate                  : 23.976 (24000/1001) FPS
Color space                 : YUV
Chroma subsampling          : 4:2:0
Bit depth                   : 8 bits
Scan type                   : Progressive
Bits/(Pixel*Frame)          : 0.052
Stream size                 : 692 MiB (75%)
Writing library             : x264 core 142 r2479 dd79a61
Encoding settings           : cabac=0 / ref=8 / deblock=1:0:0 / analyse=0x3:0x133 / me=umh / subme=9 / psy=1 / psy_rd=1.00:0.00 / mixed_ref=1 / me_range=16 / chroma_me=1 / trellis=2 / 8x8dct=1 / cqm=0 / deadzone=21,11 / fast_pskip=1 / chroma_qp_offset=-2 / threads=24 / lookahead_threads=2 / sliced_threads=0 / nr=0 / decimate=1 / interlaced=0 / bluray_compat=0 / constrained_intra=0 / bframes=3 / b_pyramid=2 / b_adapt=2 / b_bias=0 / direct=3 / weightb=1 / open_gop=0 / weightp=2 / keyint=240 / keyint_min=24 / scenecut=40 / intra_refresh=0 / rc_lookahead=60 / rc=abr / mbtree=1 / bitrate=1223 / ratetol=1.0 / qcomp=0.60 / qpmin=0 / qpmax=69 / qpstep=4 / vbv_maxrate=62500 / vbv_bufsize=78125 / nal_hrd=none / filler=0 / ip_ratio=1.40 / aq=1:1.00
Language                    : English
Default                     : Yes
Forced                      : No
Color range                 : Limited
Color primaries             : BT.709
Transfer characteristics    : BT.709
Matrix coefficients         : BT.709

Audio #1

ID                          : 3
Format                      : AAC
Format/Info                 : Advanced Audio Codec
Format profile              : LC
Codec ID                    : A_AAC-2
Duration                    : 1 h 24 min
Bit rate                    : 129 kb/s
Channel(s)                  : 2 channels
Channel positions           : Front: L R
Sampling rate               : 44.1 kHz
Frame rate                  : 43.066 FPS (1024 SPF)
Compression mode            : Lossy
Delay relative to video     : -23 ms
Stream size                 : 77.4 MiB (8%)
Language                    : Hindi
Default                     : Yes
Forced                      : No

Audio #2

ID                          : 5
Format                      : AC-3
Format/Info                 : Audio Coding 3
Codec ID                    : A_AC3
Duration                    : 1 h 24 min
Bit rate mode               : Constant
Bit rate                    : 224 kb/s
Channel(s)                  : 6 channels
Channel positions           : Front: L C R, Side: L R, LFE
Sampling rate               : 48.0 kHz
Frame rate                  : 31.250 FPS (1536 SPF)
Bit depth                   : 16 bits
Compression mode            : Lossy
Delay relative to video     : -5 ms
Stream size                 : 135 MiB (15%)
Language                    : English
Service kind                : Complete Main
Default                     : No
Forced                      : No

Text #1

ID                          : 1
Format                      : PGS
Muxing mode                 : zlib
Codec ID                    : S_HDMV/PGS
Codec ID/Info               : Picture based subtitle format used on BDs/HD-DVDs
Duration                    : 1 h 17 min
Bit rate                    : 40.0 kb/s
Count of elements           : 2424
Stream size                 : 22.2 MiB (2%)
Language                    : English
Default                     : No
Forced                      : No

Text #2

ID                          : 2
Format                      : PGS
Muxing mode                 : zlib
Codec ID                    : S_HDMV/PGS
Codec ID/Info               : Picture based subtitle format used on BDs/HD-DVDs
Duration                    : 1 h 23 min
Bit rate                    : 28.8 kb/s
Count of elements           : 2434
Stream size                 : 17.2 MiB (2%)
Language                    : Hindi
Default                     : No
Forced                      : No

Text #3

ID                          : 6
Format                      : UTF-8
Codec ID                    : S_TEXT/UTF8
Codec ID/Info               : UTF-8 Plain Text
Duration                    : 10 s 0 ms
Bit rate                    : 260 b/s
Count of elements           : 4
Stream size                 : 326 Bytes (0%)
Language                    : English
Default                     : Yes
Forced                      : No


feb49980d20e007ebcaaa4b4b59891b9.th.jpg af4012f6c05dfc84d5951b899d1ef4f9.th.jpg 467528f0e52724bf8c71d8071eb4fa47.th.jpg 0fb264697f4fad47cdd6edbc1f7dd779.th.jpg e261adf4bc37b5672e75ab627cc1a38f.th.jpg 5a2d505c64545f386f0866de2da303f7.th.jpg
Category:Movies > Hollywood Dub
Lang:Hindi
Total Size:935.12 MB



Sample
:download:

|| Download This Movie Via Single Resumable Links Size: 919 MB ||

Direct-1 Google Drive | Direct-2 | Direct-3 |

Watch Online Click Here

Post a Comment

0 Comments