Paranormal Activity 6 The Ghost Dimension (2015) BluRay 720p x264 AC3 Dual Audio [Hindi + English] 825MB


Poster


iMDB
Imdb Picture Title: Paranormal Activity: The Ghost Dimension
Year: 2015
Runtime: 88 minutes
Votes: 20061
Rating: 4.6/10
Language: English, German, Ukrainian
Country: USA
All Genres: Horror
Plot Outline: Using a special camera that can see spirits, a family must protect their daughter from an evil entity with a sinister plan.
Tagline: Every secret will be revealed.
Director: Gregory Plotkin
Writing By: Jason Pagan,Andrew Deutschman,Adam Robitel,Gavin Heffernan,Brantley Aufill,Jason Pagan,Andrew Deutschman,Oren Peli,
Produced By: Jason Blum,Steven R. Molen,Oren Peli,Steven Schneider,
Cast:
Chris J. Murray as Ryan
Brit Shaw as Emily
Ivy George as Leila
Dan Gill as Mike
Olivia Taylor Dudley as Skyler
Chloe Csengery as Katie
Jessica Tyler Brown as Kristi
Don McManus as Kent
Michael Krawic as Father Todd
Hallie Foote as Grandma Lois
Trailers:
Theatrical Trailer
Trailer #1


Details
Name:Paranormal Activity 6 The Ghost Dimension (2015) BluRay 720p x264 AC3 Dual Audio [Hindi + English] 825MB
Description:
Paranormal Activity 6 The Ghost Dimension (2015) BluRay 720p x264 AC3 Dual Audio [Hindi + English] 825MB



032429236265

General

Format                      : Matroska
Format version              : Version 4 / Version 2
File size                   : 826 MiB
Duration                    : 1 h 33 min
Overall bit rate            : 1 237 kb/s
Movie name                  : Paranormal Activity 6 The Ghost Dimension (2015) 720p BluRay x264 AC3 Dual Audio [Hindi + English] 825MB [CraZzyBoY]
Encoded date                : UTC 2018-01-09 10:11:59
Writing application         : mkvmerge v19.0.0 ('Brave Captain') 64-bit
Writing library             : libebml v1.3.5 + libmatroska v1.4.8

Video

ID                          : 1
Format                      : AVC
Format/Info                 : Advanced Video Codec
Format profile              : High@L4.1
Format settings             : CABAC / 4 Ref Frames
Format settings, CABAC      : Yes
Format settings, ReFrames   : 4 frames
Codec ID                    : V_MPEG4/ISO/AVC
Duration                    : 1 h 33 min
Bit rate                    : 999 kb/s
Width                       : 1 280 pixels
Height                      : 720 pixels
Display aspect ratio        : 16:9
Frame rate mode             : Constant
Frame rate                  : 25.000 FPS
Color space                 : YUV
Chroma subsampling          : 4:2:0
Bit depth                   : 8 bits
Scan type                   : Progressive
Bits/(Pixel*Frame)          : 0.043
Stream size                 : 654 MiB (79%)
Writing library             : x264 core 148 r2638 7599210
Encoding settings           : cabac=1 / ref=3 / deblock=1:0:0 / analyse=0x3:0x113 / me=hex / subme=7 / psy=1 / psy_rd=1.00:0.00 / mixed_ref=1 / me_range=16 / chroma_me=1 / trellis=1 / 8x8dct=1 / cqm=0 / deadzone=21,11 / fast_pskip=1 / chroma_qp_offset=-2 / threads=12 / lookahead_threads=2 / sliced_threads=0 / nr=0 / decimate=1 / interlaced=0 / bluray_compat=0 / constrained_intra=0 / bframes=3 / b_pyramid=2 / b_adapt=1 / b_bias=0 / direct=1 / weightb=1 / open_gop=0 / weightp=2 / keyint=250 / keyint_min=25 / scenecut=40 / intra_refresh=0 / rc_lookahead=40 / rc=2pass / mbtree=1 / bitrate=999 / ratetol=1.0 / qcomp=0.60 / qpmin=0 / qpmax=69 / qpstep=4 / cplxblur=20.0 / qblur=0.5 / vbv_maxrate=62500 / vbv_bufsize=78125 / nal_hrd=none / filler=0 / ip_ratio=1.40 / aq=1:1.00
Language                    : English
Default                     : Yes
Forced                      : No

Audio #1

ID                          : 2
Format                      : AC-3
Format/Info                 : Audio Coding 3
Codec ID                    : A_AC3
Duration                    : 1 h 33 min
Bit rate mode               : Constant
Bit rate                    : 128 kb/s
Channel(s)                  : 6 channels
Channel positions           : Front: L C R, Side: L R, LFE
Sampling rate               : 48.0 kHz
Frame rate                  : 31.250 FPS (1536 SPF)
Bit depth                   : 16 bits
Compression mode            : Lossy
Stream size                 : 85.5 MiB (10%)
Language                    : Hindi
Service kind                : Complete Main
Default                     : Yes
Forced                      : No

Audio #2

ID                          : 3
Format                      : AC-3
Format/Info                 : Audio Coding 3
Codec ID                    : A_AC3
Duration                    : 1 h 33 min
Bit rate mode               : Constant
Bit rate                    : 128 kb/s
Channel(s)                  : 6 channels
Channel positions           : Front: L C R, Side: L R, LFE
Sampling rate               : 48.0 kHz
Frame rate                  : 31.250 FPS (1536 SPF)
Bit depth                   : 16 bits
Compression mode            : Lossy
Stream size                 : 85.5 MiB (10%)
Language                    : English
Service kind                : Complete Main
Default                     : No
Forced                      : No

Text

ID                          : 4
Format                      : UTF-8
Codec ID                    : S_TEXT/UTF8
Codec ID/Info               : UTF-8 Plain Text
Duration                    : 10 s 0 ms
Bit rate                    : 260 b/s
Count of elements           : 4
Stream size                 : 326 Bytes (0%)
Language                    : English
Default                     : Yes
Forced                      : No


1d4198e1b4f507c92846404708797af5.th.jpg e518d9b0a69091a03609f35ff16ce231.th.jpg b4c62f49a6adb33529fdfc8266694b80.th.jpg bc2b6cf308a40fff8fc6d434cc7a5f5d.th.jpg ff69c32be7286ba4a188578caf2943dd.th.jpg f037d4c1905c522dd514e6c90b04282b.th.jpg 6ad69311deb3f7fee6b600757bb1e78f.th.jpg 46641d8f55bd398b7b031a65c46e615b.th.jpg
Category:Movies > Hollywood Dub
Lang:Hindi
Total Size:834.81 MB



Sample
:download:

|| Download This Movie Via Single Resumable Links Size: 826 MB ||

Direct-1 Google Drive | Direct-2 | Direct-3 |

Watch Online Click Here

Post a Comment

0 Comments