Crazy World Only 4 You

Sorry For The Inconvenience. If You are facing link dead or no google drive file access then inform us via comment

Latest Updates

Tuesday, 20 February 2018

The Condemned 2 (2015) BluRay 720p Dual Audio [Hindi + Eng] x264


Poster


iMDB
Imdb Picture Title: The Condemned 2
Year: 2015
Runtime: 90 minutes
Votes: 1696
Rating: 4.3/10
Language: English
Country: USA
All Genres: Action, Thriller
Plot Outline: A former bounty hunter who finds himself on the run as part of a revamped Condemned tournament, in which convicts are forced to fight each other to the death as part of a game that's broadcast to the public.
Director: Roel Reiné
Writing By: Alan B. McElroy,
Produced By: Richard Lowell,Michael J. Luisi,John N. Ward,
Music: Trevor Morris Ted Reedy
Cast:
Randy Orton as Will Tanner
Eric Roberts as Frank Tanner
Wes Studi as Cyrus Merrick
Steven Michael Quezada as Raul Baccaro
Bill Stinchcomb as Harrigan
Alex Knight as Cooper
Dylan Kenin as Travis
Michael Sheets as Lange
Morse Bicknell as Michaels
Mark Sivertsen as Sheriff Eric Ross
Trailers:
The Condemned 2
The Condemned 2


Details
Name:The Condemned 2 (2015) BluRay 720p Dual Audio [Hindi + Eng] x264
Description:
The Condemned 2 (2015) BluRay 720p Dual Audio [Hindi + Eng] x264




-=The World's Deadliest Game Is Back Online=-


-=Exclusive By -=AHMED MAHER=-=-




Format                                   : Matroska
Format version                           : Version 4 / Version 2
File size                                : 873 MiB
Duration                                 : 1 h 30 min
Overall bit rate                         : 1 352 kb/s
Encoded date                             : UTC 2018-02-19 10:47:14
Writing application                      : mkvmerge v9.7.1 ('Pandemonium') 64bit
Writing library                          : libebml v1.3.4 + libmatroska v1.4.5

Video
ID                                       : 1
Format                                   : AVC
Format/Info                              : Advanced Video Codec
Format profile                           : High@L4.1
Format settings, CABAC                   : Yes
Format settings, ReFrames                : 5 frames
Codec ID                                 : V_MPEG4/ISO/AVC
Duration                                 : 1 h 30 min
Bit rate                                 : 999 kb/s
Width                                    : 1 280 pixels
Height                                   : 720 pixels
Display aspect ratio                     : 16:9
Frame rate mode                          : Constant
Frame rate                               : 23.976 (24000/1001) FPS
Color space                              : YUV
Chroma subsampling                       : 4:2:0
Bit depth                                : 8 bits
Scan type                                : Progressive
Bits/(Pixel*Frame)                       : 0.045
Stream size                              : 644 MiB (74%)
Writing library                          : x264 core 146 r2538 121396c
Encoding settings                        : cabac=1 / ref=5 / deblock=1:-1:-1 / analyse=0x3:0x113 / me=umh / subme=9 / psy=1 / psy_rd=1.00:0.15 / mixed_ref=1 / me_range=24 / chroma_me=1 / trellis=2 / 8x8dct=1 / cqm=0 / deadzone=21,11 / fast_pskip=0 / chroma_qp_offset=-3 / threads=12 / lookahead_threads=1 / sliced_threads=0 / nr=0 / decimate=1 / interlaced=0 / bluray_compat=0 / constrained_intra=0 / bframes=3 / b_pyramid=2 / b_adapt=2 / b_bias=0 / direct=3 / weightb=1 / open_gop=0 / weightp=2 / keyint=240 / keyint_min=23 / scenecut=40 / intra_refresh=0 / rc_lookahead=60 / rc=2pass / mbtree=1 / bitrate=999 / ratetol=1.0 / qcomp=0.60 / qpmin=0 / qpmax=69 / qpstep=4 / cplxblur=20.0 / qblur=0.5 / vbv_maxrate=31250 / vbv_bufsize=31250 / nal_hrd=none / filler=0 / ip_ratio=1.40 / aq=1:1.00
Default                                  : Yes
Forced                                   : No
Color range                              : Limited
Color primaries                          : BT.709
Matrix coefficients                      : BT.709

Audio #1
ID                                       : 2
Format                                   : AAC
Format/Info                              : Advanced Audio Codec
Format profile                           : LC
Codec ID                                 : A_AAC
Duration                                 : 1 h 30 min
Bit rate                                 : 96.0 kb/s
Channel(s)                               : 2 channels
Channel positions                        : Front: L R
Sampling rate                            : 48.0 kHz
Frame rate                               : 46.875 FPS (1024 spf)
Compression mode                         : Lossy
Delay relative to video                  : -21 ms
Stream size                              : 62.0 MiB (7%)
Default                                  : No
Forced                                   : No

Audio #2
ID                                       : 3
Format                                   : MPEG Audio
Format version                           : Version 1
Format profile                           : Layer 3
Mode                                     : Joint stereo
Mode extension                           : MS Stereo
Codec ID                                 : A_MPEG/L3
Codec ID/Hint                            : MP3
Duration                                 : 1 h 30 min
Bit rate mode                            : Constant
Bit rate                                 : 256 kb/s
Channel(s)                               : 2 channels
Sampling rate                            : 44.1 kHz
Frame rate                               : 38.281 FPS (1152 spf)
Compression mode                         : Lossy
Delay relative to video                  : -21 ms
Stream size                              : 165 MiB (19%)
Title                                    : BY AHMED MAHER
Writing library                          : LAME3.98.2
Language                                 : Hindi
Default                                  : Yes
Forced                                   : Yes



c21bf9ae3961c5cba6871f2780e499c0.th.png 9d3cc21a36e1ddb5a097887a18881c3e.th.png f9f2f90c522ee3bc17200c9a742cb704.th.png 49b4029717a80c41f11411dfbb81f08b.th.png
Category:Movies > Hollywood Dub
Lang:Hindi
Total Size:903.72 MB



Sample
:download:

|| Download This Movie Via Single Resumable Links Size: 873 MB ||

Direct-1 Google Drive | Direct-2 | Direct-3 |

Watch Online Click Here

No comments:

Post a Comment