Crazy World Only 4 You

Sorry For The Inconvenience. If You are facing link dead or no google drive file access then inform us via comment

Latest Updates

Sunday, 11 February 2018

The Fox And The Hound 2 (2006) BluRay 720p Dual Audio [Hindi DD 2.0 + English DD 5.1] x264


Poster


iMDB
Imdb Picture Title: The Fox and the Hound 2
Year: 2006
Runtime: 69 minutes
Votes: 3175
Rating: 5.4/10
Language: English
Country: USA
All Genres: Animation, Adventure, Comedy, Family, Musical
Plot Outline: In this midquel to The Fox and the Hound (1981), Copper the hound dog, here still just a pup, joins a canine music band, and spends less and less time with his best friend Todd the fox. Is their friendship in danger?
Director: Jim Kammerud
Writing By: Rich Burns,Daniel P. Mannix,Roger S.H. Schulman,
Produced By: Ferrell Barron,Catherine A. Jones,Danielle Legovich,Joelle Spencer-Gilchrist,
Music: Joel McNeely
Cast:
Reba McEntire as Dixie
Patrick Swayze as Cash
Jonah Bobo as Todd
Harrison Fahn as Copper
Jeff Foxworthy as Lyle
Vicki Lawrence as Granny Rose
Stephen Root as Talent Scout
Jim Cummings as Waylon / Floyd
Kath Soucie as Zelda
Hannah Farr as Olivia Farmer
Trailers:
Fox and the Hound/Fox and the Hound II: Special Edition


Details
Name:The Fox And The Hound 2 (2006) BluRay 720p Dual Audio [Hindi DD 2.0 + English DD 5.1] x264
Description:
The Fox And The Hound 2 (2006) BluRay 720p Dual Audio [Hindi DD 2.0 + English DD 5.1] x264

23803_front
 Format                                   : Matroska
Format version                           : Version 4 / Version 2
File size                                : 920 MiB
Duration                                 : 1 h 9 min
Overall bit rate                         : 1 855 kb/s
Movie name                               : This movie is encoded and sync by AHMED-MAHER
Encoded date                             : UTC 2018-02-10 14:11:38
Writing application                      : mkvmerge v9.7.1 ('Pandemonium') 64bit
Writing library                          : libebml v1.3.4 + libmatroska v1.4.5

Video
ID                                       : 1
Format                                   : AVC
Format/Info                              : Advanced Video Codec
Format profile                           : High@L4.1
Format settings, CABAC                   : Yes
Format settings, ReFrames                : 4 frames
Codec ID                                 : V_MPEG4/ISO/AVC
Duration                                 : 1 h 9 min
Bit rate                                 : 1 500 kb/s
Width                                    : 1 280 pixels
Height                                   : 720 pixels
Display aspect ratio                     : 16:9
Frame rate mode                          : Constant
Frame rate                               : 23.976 (23976/1000) FPS
Color space                              : YUV
Chroma subsampling                       : 4:2:0
Bit depth                                : 8 bits
Scan type                                : Progressive
Bits/(Pixel*Frame)                       : 0.068
Stream size                              : 744 MiB (81%)
Writing library                          : x264 core 148 r2597M e86f3a1
Default                                  : Yes
Forced                                   : No

Audio #1
ID                                       : 2
Format                                   : AAC
Format/Info                              : Advanced Audio Codec
Format profile                           : LC
Codec ID                                 : A_AAC
Duration                                 : 1 h 9 min
Bit rate                                 : 224 kb/s
Channel(s)                               : 6 channels
Channel positions                        : Front: L C R, Side: L R, LFE
Sampling rate                            : 48.0 kHz
Frame rate                               : 46.875 FPS (1024 spf)
Compression mode                         : Lossy
Stream size                              : 111 MiB (12%)
Language                                 : English
Default                                  : No
Forced                                   : No

Audio #2
ID                                       : 3
Format                                   : MPEG Audio
Format version                           : Version 1
Format profile                           : Layer 3
Mode                                     : Joint stereo
Mode extension                           : MS Stereo
Codec ID                                 : A_MPEG/L3
Codec ID/Hint                            : MP3
Duration                                 : 1 h 9 min
Bit rate mode                            : Constant
Bit rate                                 : 128 kb/s
Channel(s)                               : 2 channels
Sampling rate                            : 44.1 kHz
Frame rate                               : 38.281 FPS (1152 spf)
Compression mode                         : Lossy
Stream size                              : 63.5 MiB (7%)
Title                                    : By AHMED-MAHER
Writing library                          : LAME3.98.2
Language                                 : Hindi
Default                                  : Yes
Forced                                   : Yes
  
20e979bf50f04da50c6051685f02fc75.th.png 7af73b3e9237fa413d967c6ecbdca4b8.th.png 149fe9e2a39cab0a0a86211d3bcf7b29.th.png c83e5b8a1e05726fe15d6ea8e8b4da67.th.png
Category:Movies > Hollywood Dub
Lang:Hindi
Total Size:951.65 MB



Sample
:download:

|| Download This Movie Via Single Resumable Links Size: 920 MB ||

Direct-1 Google Drive | Direct-2 | Direct-3 |

Watch Online Click Here

No comments:

Post a Comment