Crazy World Only 4 You

Sorry For The Inconvenience. If You are facing link dead or no google drive file access then inform us via comment

Latest Updates

Tuesday, 13 February 2018

Thikka (2016) Hindi Untouched 720p Web-HD x264 AAC


Poster


iMDB
Imdb Picture Title: Thikka
Year: 2016
Runtime: 140 minutes
Votes: 13
Rating: 5.2/10
Language: Telugu, Hindi
Country: India
All Genres: Action, Comedy, Thriller
Plot Outline: A freaky incident during the breakup party of a man leads to an ultimate change in his life as uncalled situations pop up, eventually leading to a lot of frenzy.
Director: Sunil Reddy
Writing By: Lakshmi Bhupal,Sheik Dawood G.,Harsha Vardhan,
Produced By: Dr. Rohin Reddy,
Music: S. Thaman
Cast:
Ajay as Sadhu Bhai
Ali as Kapoor
Anand as Madan Mohan
Raghu Babu as Narsimha
Larissa Bonesi as Anjali
Mannara Chopra as Virisha
Dasanna as Constable
Gurbani as Kamala
Harshavardhan as Mental Doctor
Mumait Khan as Kavitha

Details
Name:Sye (2004) 720p UNCUT HDRip x264 Eng Subs [Dual Audio] [Hindi 2.0 - Telugu 2.0] -=!Dr.STAR!=-
Description:
Sye (2004) 720p UNCUT HDRip x264 Eng Subs [Dual Audio] [Hindi 2.0 - Telugu 2.0] -=

Ko_Yj_Q8_U

General

Format                                   : Matroska
Format version                           : Version 4 / Version 2
File size                                : 1.06 GiB
Duration                                 : 1 h 59 min
Overall bit rate                         : 1 275 kb/s


Video
ID                                       : 1
Format                                   : VP9
Codec ID                                 : V_VP9
Duration                                 : 1 h 59 min
Bit rate                                 : 1 144 kb/s
Width                                    : 1 280 pixels
Height                                   : 720 pixels
Display aspect ratio                     : 16:9
Frame rate mode                          : Constant
Frame rate                               : 25.000 FPS
Bits/(Pixel*Frame)                       : 0.050
Stream size                              : 976 MiB (90%)
Default                                  : Yes
Forced                                   : No

Audio
ID                                       : 2
Format                                   : Opus
Codec ID                                 : A_OPUS
Duration                                 : 1 h 59 min
Bit rate                                 : 128 kb/s
Channel(s)                               : 2 channels
Channel positions                        : Front: L R
Sampling rate                            : 48.0 kHz
Frame rate                               : 50.000 FPS (960 SPF)
Compression mode                         : Lossy
Stream size                              : 110 MiB (10%)
Language                                 : Hindi
Default                                  : Yes
Forced                                   : No

Text
ID                                       : 3
Format                                   : UTF-8
Codec ID                                 : S_TEXT/UTF8
Codec ID/Info                            : UTF-8 Plain Text
Duration                                 : 1 h 58 min
Bit rate                                 : 93 b/s
Count of elements                        : 2156
Stream size                              : 81.3 KiB (0%)
Language                                 : English
Default                                  : Yes
Forced                                   : No



lk144k012mtv_x
Category:Movies > South Dub
Lang:Hindi
Total Size:1.06 GB



:download:

|| Download This Movie Via Single Resumable Links Size: 1.06 GB ||

Direct-1 Google Drive | Direct-2 | Direct-3 |

Watch Online Click Here

No comments:

Post a Comment