What Dreams May Come (1998) BRRip 720p x264 Dual Audio [Hindi + English] AAC Esub ~Katyayan~


Poster


iMDB
Imdb Picture Title: What Dreams May Come
Year: 1998
Runtime: 113 minutes
Votes: 90085
Rating: 7.0/10
Language: English
Country: USA, New Zealand
All Genres: Drama, Fantasy, Romance
Plot Outline: After he dies in a car crash, a man searches heaven and hell for his beloved wife.
Tagline: After life there is more. The end is just the beginning.
Director: Vincent Ward
Writing By: Richard Matheson,Ronald Bass,
Produced By: Barnet Bain,Ronald Bass,Alan C. Blomquist,Stephen Deutsch,Ted Field,Erica Huggins,Scott Kroopf,
Music: Michael Kamen
Cast:
Robin Williams as Chris Nielsen
Cuba Gooding Jr. as Albert Lewis
Annabella Sciorra as Annie Collins-Nielsen
Max von Sydow as The Tracker
Jessica Brooks Grant as Marie Nielsen
Josh Paddock as Ian Nielsen
Rosalind Chao as Leona
Lucinda Jenney as Mrs. Jacobs
Maggie McCarthy as Stacey Jacobs
Wilma Bonet as Angie
Trailers:
What Dreams May Come


Details
Name:What Dreams May Come (1998) BRRip 720p x264 Dual Audio [Hindi + English] AAC Esub ~Katyayan~
Description:
What Dreams May Come (1998) BRRip 720p x264 Dual Audio [Hindi + English] AAC Esub ~Katyayan~

 

-=General=-

Format                                   : Matroska
Format version                           : Version 4 / Version 2
File size                                : 895 MiB
Duration                                 : 1 h 53 min
Overall bit rate                         : 1 100 kb/s
Movie name                               : What Dreams May Come (1998) BRRip 720p x264 Dual Audio [Hindi + English] AAC Esub ~Katyayan~
Encoded date                             : UTC 2018-02-05 09:04:25
Writing application                      : mkvmerge v14.0.0 ('Flow') 32bit
Writing library                          : libebml v1.3.4 + libmatroska v1.4.5

-=Video=-

ID                                       : 1
Format                                   : AVC
Format/Info                              : Advanced Video Codec
Format profile                           : High@L4.1
Format settings, CABAC                   : Yes
Format settings, ReFrames                : 5 frames
Codec ID                                 : V_MPEG4/ISO/AVC
Duration                                 : 1 h 53 min
Bit rate                                 : 906 kb/s
Width                                    : 1 280 pixels
Height                                   : 538 pixels
Display aspect ratio                     : 2.40:1
Frame rate mode                          : Constant
Frame rate                               : 23.976 (24000/1001) FPS
Original frame rate                      : 23.976 (23976/1000) FPS
Color space                              : YUV
Chroma subsampling                       : 4:2:0
Bit depth                                : 8 bits
Scan type                                : Progressive
Bits/(Pixel*Frame)                       : 0.055
Stream size                              : 737 MiB (82%)
Title                                    : What Dreams May Come (1998) BRRip 720p x264 Dual Audio [Hindi + English] AAC Esub ~Katyayan~
Writing library                          : x264 core 132 r2 76a5c3a
Encoding settings                        : cabac=1 / ref=5 / deblock=1:-1:-1 / analyse=0x3:0x133 / me=umh / subme=9 / psy=1 / psy_rd=1.00:0.15 / mixed_ref=1 / me_range=24 / chroma_me=1 / trellis=2 / 8x8dct=1 / cqm=0 / deadzone=21,11 / fast_pskip=0 / chroma_qp_offset=-3 / threads=18 / lookahead_threads=1 / sliced_threads=0 / nr=0 / decimate=1 / interlaced=0 / bluray_compat=0 / constrained_intra=0 / bframes=3 / b_pyramid=2 / b_adapt=2 / b_bias=0 / direct=3 / weightb=1 / open_gop=0 / weightp=2 / keyint=250 / keyint_min=23 / scenecut=40 / intra_refresh=0 / rc_lookahead=60 / rc=2pass / mbtree=1 / bitrate=906 / ratetol=1.0 / qcomp=0.60 / qpmin=0 / qpmax=69 / qpstep=4 / cplxblur=20.0 / qblur=0.5 / vbv_maxrate=31250 / vbv_bufsize=31250 / nal_hrd=none / ip_ratio=1.40 / aq=1:1.00
Language                                 : English
Default                                  : Yes
Forced                                   : Yes
Color range                              : Limited
Color primaries                          : BT.709
Matrix coefficients                      : BT.709

-=Audio #1=-

ID                                       : 2
Format                                   : AAC
Format/Info                              : Advanced Audio Codec
Format profile                           : LC
Codec ID                                 : A_AAC
Duration                                 : 1 h 53 min
Bit rate                                 : 96.0 kb/s
Channel(s)                               : 2 channels
Channel positions                        : Front: L R
Sampling rate                            : 48.0 kHz
Frame rate                               : 46.875 FPS (1024 spf)
Compression mode                         : Lossy
Delay relative to video                  : -83 ms
Stream size                              : 78.0 MiB (9%)
Title                                    : ~Katyayan~
Language                                 : English
Default                                  : No
Forced                                   : No

-=Audio #2=-

ID                                       : 3
Format                                   : AAC
Format/Info                              : Advanced Audio Codec
Format profile                           : HE-AAC / LC
Codec ID                                 : A_AAC
Duration                                 : 1 h 53 min
Bit rate                                 : 96.0 kb/s
Channel(s)                               : 2 channels
Channel positions                        : Front: L R
Sampling rate                            : 48.0 kHz / 24.0 kHz
Frame rate                               : 23.438 FPS (1024 spf)
Compression mode                         : Lossy
Delay relative to video                  : -83 ms
Stream size                              : 78.0 MiB (9%)
Title                                    : ~Katyayan~
Language                                 : Hindi
Default                                  : Yes
Forced                                   : Yes

-=Text=-

ID                                       : 4
Format                                   : UTF-8
Codec ID                                 : S_TEXT/UTF8
Codec ID/Info                            : UTF-8 Plain Text
Duration                                 : 1 h 50 min
Bit rate                                 : 47 b/s
Count of elements                        : 1329
Stream size                              : 38.3 KiB (0%)
Title                                    : ~Katyayan~
Language                                 : English
Default                                  : Yes
Forced                                   : Yes
                           
Category:Movies > Hollywood Dub
Lang:Hindi
Total Size:908.25 MB



Sample
:download:

|| Download This Movie Via Single Resumable Links Size: 895 MB ||

Direct-1 Google Drive | Direct-2 | Direct-3 |

Watch Online Click Here

Post a Comment

0 Comments