Wild Child (2008) BluRay 720p Dual Audio [English + Hindi] Esub


Poster


iMDB
Imdb Picture Title: Wild Child
Year: 2008
Runtime: 98 minutes
Votes: 41294
Rating: 6.1/10
Language: English
Country: USA, UK, France
All Genres: Comedy, Drama, Romance
Plot Outline: A rebellious Malibu princess is shipped off to a strict English boarding school by her father.
Tagline: New Girl. New School. New Rules.
Director: Nick Moore
Writing By: Lucy Dahl,
Produced By: Tim Bevan,Eric Fellner,Alexandra Ferguson-Derbyshire,Diana Phillips,
Music: Michael Price
Cast:
Emma Roberts as Poppy
Lexi Ainsworth as Molly
Shelby Young as Ruby
Johnny Pacar as Roddy
Aidan Quinn as Gerry Moore
Natasha Richardson as Mrs. Kingsley
Georgia King as Harriet
Ruby Thomas as Jane
Eleanor Turner-Moss as Charlotte
Kimberley Nixon as Kate

    

Details
Name:Wild Child 2008 720p Esub BlyRay Dual Audio English Hindi GOPISAHI
Description:

Format                         : Matroska
Format version                 : Version 4 / Version 2
File size                      : 548 MiB
Duration                       : 1 h 38 min
Overall bit rate               : 779 kb/s
Movie name                     : Wild Child 2008 GOPISAHI

Video
ID                             : 1
Format                         : AVC
Codec ID                       : V_MPEG4/ISO/AVC
Duration                       : 1 h 38 min
Bit rate                       : 600 kb/s
Width                          : 1 280 pixels
Height                         : 696 pixels
Display aspect ratio           : 1.85:1
Frame rate mode                : Constant
Frame rate                     : 23.976 (24000/1001) FPS
Stream size                    : 422 MiB (77%)
Title                          : GOPISAHI
Writing library                : x264 core 155 r2893 b00bcaf

Audio #1
Format                         : AAC
Duration                       : 1 h 38 min
Bit rate                       : 88.3 kb/s
Channel(s)                     : 6 channels
Channel positions              : Front: L C R, Side: L R, LFE
Sampling rate                  : 44.1 kHz
Frame rate                     : 43.066 FPS (1024 SPF)
Stream size                    : 62.2 MiB (11%)
Language                       : Hindi

Audio #2
Format                         : AAC
Duration                       : 1 h 38 min
Bit rate                       : 88.0 kb/s
Channel(s)                     : 6 channels
Channel positions              : Front: L C R, Side: L R, LFE
Sampling rate                  : 44.1 kHz
Frame rate                     : 43.066 FPS (1024 SPF)
Stream size                    : 61.9 MiB (11%)
Language                       : English

Text
Language                       : English


Category:Movies > Hollywood Dub
Lang:Hindi
Total Size:548.36 MB



:download:

|| Download This Movie Via Single Resumable Links Size: 548 MB ||

Direct-1 Google Drive | Direct-2 | Direct-3 |

Watch Online Click Here

Post a Comment

0 Comments