1911 Revolution (2011) BluRay 720p x264 Dual.Audio {Hindi DD.2.0-Eng}-maverick [Exclusive]


Poster


iMDB
Imdb Picture Original Title: Xin hai ge ming
Title: 1911
Year: 2011
Runtime: 121 minutes
Votes: 4940
Rating: 6.0/10
Language: Mandarin, English, French
Country: China, Hong Kong
All Genres: Action, Adventure, Drama, History, War
Plot Outline: A historical drama based on the founding of the Republic of China when nationalist forces led by Sun Yat-sen overthrew the Qing Dynasty.
Tagline: Fall of the Last Empire
Director: Li Zhang
Jackie Chan
Writing By: Xingdong Wang,Baoguang Chen,
Produced By: Guoqing Gu,Bin Guo,Peter Lam,Li-Juan Liu,Jianhong Qi,Zhong-lun Ren,Xiaoyi Shen,Dafang Wang,Lian Yu,Li Zhou,Pixue Zhou,
Plot:
A historical drama based on the founding of the Republic of China when nationalist forces led by Sun Yat-sen overthrew the Qing Dynasty.
- Written by Anonymous
Cast:
Jackie Chan as Huang Xing
Winston Chao as Sun Yat-sen
Bingbing Li as Xu Zonghan
Chun Sun as Yuan Shikai
Joan Chen as Empress Longyu
Wu Jiang as Li Yuanhong
Jaycee Chan as Zhang Zhenwu
Ge Hu as Lin Juemin
Jing Ning as Qiu Jin
Shaoqun Yu as Wang Jingwei
Trailers:
U.S. Version


Details
Name:1911.Revolution.2011.aka.Xin.hai.ge.ming.720p.BluRay.x264.Dual.Audio.{Hindi.DD.2.0-Eng}-maverick [Exclusive]
Description:
1911.Revolution.2011.aka.Xin.hai.ge.ming.720p.BluRay.x264.Dual.Audio.{Hindi.DD.2.0-Eng}-maverick [Exclusive]
 

44687_front

General

Complete name : 1911.Revolution.2011.720p.BluRay.x264.Dual.Audio.{Hindi.DD.2.0-Eng}-maverick [Exclusive].mkv

Format : Matroska

Format version : Version 4 / Version 2

File size : 1.15 GiB

Duration : 1h 39mn

Overall bit rate : 1 663 Kbps



Video

ID : 1

Format : AVC

Format/Info : Advanced Video Codec

Format profile : High@L4
Format settings, CABAC : Yes

Format settings, ReFrames : 5 frames

Codec ID : V_MPEG4/ISO/AVC

Duration : 1h 39mn

Bit rate : 1 277 Kbps

Width : 1 280 pixels

Height : 544 pixels

Display aspect ratio : 2.35:1

Frame rate mode : Constant

Frame rate : 24.000 fps

Color space : YUV

Chroma subsampling : 4:2:0

Bit depth : 8 bits

Scan type : Progressive

Bits/(Pixel*Frame) : 0.076

Stream size : 883 MiB (75%)

Title : maverick

Writing library : x264 core 148 r2708 86b7198

Language : Chinese

Default : Yes

Forced : Yes

Color range : Limited

Color primaries : BT.709

Transfer characteristics : BT.709

Matrix coefficients : BT.709


Audio #1

ID : 2

Format : AC-3

Format/Info : Audio Coding 3

Mode extension : CM (complete main)

Format settings, Endianness : Big

Codec ID : A_AC3

Duration : 1h 39mn

Bit rate mode : Constant

Bit rate : 192 Kbps

Channel(s) : 2 channels

Channel positions : Front: L R

Sampling rate : 48.0 KHz

Frame rate : 31.250 fps (1536 spf)

Compression mode : Lossy

Stream size : 136 MiB (12%)

Title : maverick

Language : Hindi

Default : Yes

Forced : Yes


Audio #2

ID : 3

Format : AC-3

Format/Info : Audio Coding 3

Mode extension : CM (complete main)

Format settings, Endianness : Big

Codec ID : A_AC3

Duration : 1h 39mn

Bit rate mode : Constant

Bit rate : 192 Kbps

Channel(s) : 6 channels

Channel positions : Front: L C R, Side: L R, LFE

Sampling rate : 48.0 KHz

Frame rate : 31.250 fps (1536 spf)

Compression mode : Lossy

Stream size : 136 MiB (12%)

Title : maverick

Language : English

Default : No

Forced : No


Text

ID : 4

Format : UTF-8

Codec ID : S_TEXT/UTF8

Codec ID/Info : UTF-8 Plain Text

Title : maverick

Language : English

Default : Yes

Forced : Yes


Menu

00:00:00.000 : en:Chapter 1

00:05:47.833 : en:Chapter 2

00:11:07.125 : en:Chapter 3

00:15:35.250 : en:Chapter 4

00:20:28.458 : en:Chapter 5

00:25:02.166 : en:Chapter 6

00:30:22.875 : en:Chapter 7

00:36:30.125 : en:Chapter 8

00:42:13.750 : en:Chapter 9

00:49:20.291 : en:Chapter 10

00:54:17.625 : en:Chapter 11

00:58:06.166 : en:Chapter 12

01:03:26.208 : en:Chapter 13

01:09:22.958 : en:Chapter 14

01:14:02.958 : en:Chapter 15

01:19:50.458 : en:Chapter 16

01:23:12.083 : en:Chapter 17

01:27:29.625 : en:Chapter 18

01:31:30.958 : en:Chapter 19

01:35:30.125 : en:Chapter 20


Hindi Audio Source Original WEB.......Thanks Rider
Note: No Watermarks/Tags in Audio & Video ;).... Enjoy Movie:)



b514a9400be2f9bc484799a42f5ea749.th.png 6f8135e12e48e6c00719685f1199c5b0.th.png 9e43165bd3e9e8a85927730c959118d3.th.png b40b6a30ca1d911de680c207bae08e45.th.png 8179d659d6b5870376c3c5911b1d5945.th.png ae849f2280649b1d3439c0031709b89c.th.png 6fbeb641ddeafd09b88a8f68bce15ea1.th.png 8e6271caba104555fb2520db0df7cd83.th.png
Category:Movies > Hollywood Dub
Lang:Hindi
Total Size:1.17 GB



:download:

|| Download This Movie Via Single Resumable Links Size: 1.15 GB ||

Direct-1 Google Drive | Direct-2 | Direct-3 |

Watch Online Click Here

Post a Comment

0 Comments