Crazy World Only 4 You

Sorry For The Inconvenience. If You are facing link dead or no google drive file access then inform us via comment

Latest Updates

Tuesday, 20 March 2018

Astro Boy (2009) BluRay 720p x264 Dual Audio [Hindi + Eng] Exclusive By Maher


Poster


iMDB
Imdb Picture Title: Astro Boy
Year: 2009
Runtime: 94 minutes
Votes: 28469
Rating: 6.3/10
Language: English
Country: Hong Kong, USA, Japan
All Genres: Animation, Action, Comedy, Family, Sci-Fi
Plot Outline: When an android replica of a boy is rejected by his aggrieved creator, he goes off to find his own identity in an adventure that would make him the greatest hero of his time.
Tagline: Built for Adventure
Director: David Bowers
Writing By: Osamu Tezuka,David Bowers,Timothy Harris,David Bowers,
Produced By: Pilar Flynn,Maryann Garger,B.L. Jurgens,Francis Kao,Cecil Kramer,Ken Tsumura,Paul Wang,
Music: John Ottman
Cast:
Charlize Theron as 'Our Friends' Narrator
Freddie Highmore as Astro / Toby
Ryan Stiles as Mr. Moustachio / Burning Robot
Eugene Levy as Orrin
Nicolas Cage as Dr. Tenma
Donald Sutherland as President Stone
Bill Nighy as Dr. Elefun / Robotsky
David Alan Grier as Mr. Squirt / Math Cowboy / Boxer Robot
Alan Tudyk as Mr. Squeegee / Scrapheap Head / Stinger Two
Newell Alexander as General Heckler
Trailers:
Astro Boy: Trailer #2
Astro Boy: Trailer #1
Astro Boy: Teaser Trailer

Details
Name:Astro Boy (2009) BluRay 720p x264 Dual Audio [Hindi + Eng] Exclusive By Maher
Description:
Astro Boy (2009) BluRay 720p x264 Dual Audio [Hindi + Eng] Exclusive By Maher

 
 
astro-boy-blu-ray-cover-93

Format : Matroska
Format version : Version 4 / Version 2
File size : 1.30 GiB
Duration : 1 h 33 min
Overall bit rate : 1 980 kb/s

Video
ID : 1
Format : AVC
Format/Info : Advanced Video Codec
Format profile : High@L4.1
Format settings, CABAC : Yes
Format settings, ReFrames : 4 frames
Codec ID : V_MPEG4/ISO/AVC
Duration : 1 h 33 min
Bit rate : 1 500 kb/s
Width : 1 280 pixels
Height : 544 pixels
Display aspect ratio : 2.35:1
Frame rate mode : Constant
Frame rate : 23.976 (23976/1000) FPS
Color space : YUV
Chroma subsampling : 4:2:0
Bit depth : 8 bits
Scan type : Progressive
Bits/(Pixel*Frame) : 0.090
Stream size : 1 007 MiB (76%)
Writing library : x264 core 148 r2638M 7599210
Default : Yes
Forced : No

Audio #1
ID : 2
Format : AAC
Format/Info : Advanced Audio Codec
Format profile : LC
Codec ID : A_AAC
Duration : 1 h 33 min
Bit rate : 224 kb/s
Channel(s) : 6 channels
Channel positions : Front: L C R, Side: L R, LFE
Sampling rate : 48.0 kHz
Frame rate : 46.875 FPS (1024 spf)
Compression mode : Lossy
Stream size : 150 MiB (11%)
Language : English
Default : No
Forced : No

Audio #2
ID : 3
Format : AAC
Format/Info : Advanced Audio Codec
Format profile : LC
Codec ID : A_AAC
Duration : 1 h 33 min
Bit rate : 254 kb/s
Channel(s) : 2 channels
Channel positions : Front: L R
Sampling rate : 44.1 kHz
Frame rate : 43.066 FPS (1024 spf)
Compression mode : Lossy
Stream size : 170 MiB (13%)
Title : By-MAHER
Language : Hindi
Default : Yes
Forced : Yes

9b9b039dc8422aaa4015a5b60752087d.th.png 3767d43eba22d4f4c7cc671ef2f99433.th.png 4e1960a19b0e51ae065d7512e7b00d5f.th.png 77613308523c511422f75eb466103ae3.th.png
Category:Movies > Hollywood Dub
Lang:Hindi
Total Size:1.32 GB



:download:

|| Download This Movie Via Single Resumable Links Size: 1.30 GB ||

Direct-1 Google Drive | Direct-2 | Direct-3 |

Watch Online Click Here

No comments:

Post a Comment