Crazy World Only 4 You

Sorry For The Inconvenience. If You are facing link dead or no google drive file access then inform us via comment

LightBlog

Latest Updates

Tuesday, 6 March 2018

Chappie (2015) BluRay 720p x264 Dual Audio [Hindi + Eng] Esubs Exclusive By Maher


Poster


iMDB
Imdb Picture Title: Chappie
Year: 2015
Runtime: 120 minutes
Votes: 200890
Rating: 6.8/10
Language: English
Country: South Africa, USA
All Genres: Action, Crime, Drama, Sci-Fi, Thriller
Plot Outline: In the near future, crime is patrolled by a mechanized police force. When one police droid, Chappie, is stolen and given new programming, he becomes the first robot with the ability to think and feel for himself.
Tagline: The next generation of family.
Director: Neill Blomkamp
Writing By: Neill Blomkamp,Terri Tatchell,
Produced By: James Bitonti,Neill Blomkamp,Victoria Burkhart,Trishia Downie,Simon Kinberg,Ben Waisbren,
Music: Hans Zimmer
Cast:
Sharlto Copley as Chappie
Dev Patel as Deon Wilson
Ninja as Ninja
Yo-Landi Visser as Yo-Landi
Jose Pablo Cantillo as Yankie (Amerika)
Hugh Jackman as Vincent Moore
Sigourney Weaver as Michelle Bradley
Brandon Auret as Hippo
Johnny Selema as Pitbull
Anderson Cooper as Anderson Cooper
Trailers:
New Trailer
Trailer #1


Details
Name:Chappie (2015) BluRay 720p x264 Dual Audio [Hindi + Eng] Esubs Exclusive By Maher
Description:
Chappie (2015) BluRay 720p x264 Dual Audio [Hindi + Eng] Esubs Exclusive By Maher

CHappie_Blu_Ray

Format : Matroska
Format version : Version 4 / Version 2
File size : 1.06 GiB
Duration : 2 h 0 min
Overall bit rate : 1 261 kb/s
Encoded date : UTC 2018-03-05 16:03:50
Writing application : mkvmerge v9.7.1 ('Pandemonium') 64bit
Writing library : libebml v1.3.4 + libmatroska v1.4.5

Video
ID : 1
Format : AVC
Format/Info : Advanced Video Codec
Format profile : High@L4.1
Format settings, CABAC : Yes
Format settings, ReFrames : 4 frames
Codec ID : V_MPEG4/ISO/AVC
Duration : 2 h 0 min
Bit rate : 910 kb/s
Width : 1 280 pixels
Height : 536 pixels
Display aspect ratio : 2.40:1
Frame rate mode : Constant
Frame rate : 23.976 (24000/1001) FPS
Original frame rate : 23.976 (23976/1000) FPS
Color space : YUV
Chroma subsampling : 4:2:0
Bit depth : 8 bits
Scan type : Progressive
Bits/(Pixel*Frame) : 0.055
Stream size : 783 MiB (72%)
Writing library : x264 core 123 r2189 35cf912
Encoding settings : cabac=1 / ref=4 / deblock=1:-1:-1 / analyse=0x3:0x133 / me=umh / subme=9 / psy=1 / psy_rd=1.00:0.15 / mixed_ref=1 / me_range=24 / chroma_me=1 / trellis=2 / 8x8dct=1 / cqm=0 / deadzone=21,11 / fast_pskip=0 / chroma_qp_offset=-3 / threads=48 / sliced_threads=0 / nr=0 / decimate=1 / interlaced=0 / bluray_compat=0 / constrained_intra=0 / bframes=3 / b_pyramid=2 / b_adapt=2 / b_bias=0 / direct=3 / weightb=1 / open_gop=0 / weightp=2 / keyint=250 / keyint_min=23 / scenecut=40 / intra_refresh=0 / rc_lookahead=60 / rc=2pass / mbtree=1 / bitrate=910 / ratetol=1.0 / qcomp=0.60 / qpmin=0 / qpmax=69 / qpstep=4 / cplxblur=20.0 / qblur=0.5 / vbv_maxrate=31250 / vbv_bufsize=31250 / nal_hrd=none / ip_ratio=1.40 / aq=1:1.00
Default : Yes
Forced : No
Color range : Limited
Color primaries : BT.709
Matrix coefficients : BT.709

Audio #1
ID : 2
Format : AAC
Format/Info : Advanced Audio Codec
Format profile : LC
Codec ID : A_AAC
Duration : 2 h 0 min
Bit rate : 93.7 kb/s
Channel(s) : 2 channels
Channel positions : Front: L R
Sampling rate : 48.0 kHz
Frame rate : 46.875 FPS (1024 spf)
Compression mode : Lossy
Stream size : 80.6 MiB (7%)
Language : English
Default : No
Forced : No

Audio #2
ID : 3
Format : MPEG Audio
Format version : Version 1
Format profile : Layer 3
Mode : Joint stereo
Mode extension : MS Stereo
Codec ID : A_MPEG/L3
Codec ID/Hint : MP3
Duration : 2 h 0 min
Bit rate mode : Constant
Bit rate : 256 kb/s
Channel(s) : 2 channels
Sampling rate : 44.1 kHz
Frame rate : 38.281 FPS (1152 spf)
Compression mode : Lossy
Stream size : 221 MiB (20%)
Title : By-MAHER
Writing library : LAME3.98.2
Language : Hindi
Default : Yes
Forced : Yes

Text
ID : 4
Format : UTF-8
Codec ID : S_TEXT/UTF8
Codec ID/Info : UTF-8 Plain Text
Duration : 1 h 52 min
Bit rate : 61 b/s
Count of elements : 1607
Stream size : 50.6 KiB (0%)
Default : Yes
Forced : No

PAK Dubbing 1st On Net 

6d9fe47acc856d095826b35f0625a57f.th.png 0dd5d4d553115ba9a7fa0bf5f8b907d2.th.png 517e19bcc8f9a0d988a99295dcc66048.th.png af37a7f4ea52de86ff942a4bb0315c4d.th.png
Category:Movies > Hollywood Dub
Lang:Hindi
Total Size:1.08 GB



Sample
:download:

|| Download This Movie Via Single Resumable Links Size: 1.06 GB ||

Direct-1 Google Drive | Direct-2 | Direct-3 |

Watch Online Click Here

No comments:

Post a Comment