Crimson Peak (2015) BluRay 720p x264 [Dual Audio] [Hindi - English] AC3 DD 5.1- monu987 [Exclusive]


Poster


iMDB
Imdb Picture Title: Crimson Peak
Year: 2015
Runtime: 119 minutes
Votes: 108857
Rating: 6.5/10
Language: English
Country: USA, Canada
All Genres: Drama, Fantasy, Horror, Mystery, Romance, Thriller
Plot Outline: In the aftermath of a family tragedy, an aspiring author is torn between love for her childhood friend and the temptation of a mysterious outsider. Trying to escape the ghosts of her past, she is swept away to a house that breathes, bleeds - and remembers.
Tagline: Beware
Director: Guillermo del Toro
Writing By: Guillermo del Toro,Matthew Robbins,
Produced By: Guillermo del Toro,Callum Greene,Jon Jashni,Jillian Share,Thomas Tull,
Music: Fernando Velázquez
Cast:
Mia Wasikowska as Edith Cushing
Jessica Chastain as Lucille Sharpe
Tom Hiddleston as Thomas Sharpe
Charlie Hunnam as Dr. Alan McMichael
Jim Beaver as Carter Cushing
Burn Gorman as Holly
Leslie Hope as Mrs. McMichael
Doug Jones as Edith's Mother / Lady Sharpe
Jonathan Hyde as Ogilvie
Bruce Gray as Ferguson
Trailers:
International Trailer
Trailer #2
Trailer #1



Details
Name:Crimson Peak (2015) BluRay 720p x264 [Dual Audio] [Hindi - English] AC3 DD 5.1- monu987 [Exclusive]
Description:
Crimson Peak (2015) BluRay 720p x264 [Dual Audio] [Hindi - English] AC3 DD 5.1- monu987 [Exclusive] 

Crims

Crimson Peak (2015) 720p BluRay x264 [Dual Audio] [Hindi DD 5.1 Org - Eng] - monu987 [Exclusive]
Format : Matroska
Format version : Version 4 / Version 2
File size : 1.46 GiB
Duration : 1h 53mn
Overall bit rate : 1 831 Kbps


Video
ID : 1
Format : AVC
Format/Info : Advanced Video Codec
Format profile : High@L4
Format settings, CABAC : Yes
Format settings, ReFrames : 5 frames
Codec ID : V_MPEG4/ISO/AVC
Duration : 1h 53mn
Bit rate : 1 111 Kbps
Width : 1 280 pixels
Height : 688 pixels
Display aspect ratio : 1.85:1
Frame rate mode : Constant
Frame rate : 25.000 fps
Original frame rate : 23.976 fps
Color space : YUV
Chroma subsampling : 4:2:0
Bit depth : 8 bits
Scan type : Progressive
Bits/(Pixel*Frame) : 0.050
Stream size : 915 MiB (61%)
Title : monu987


Audio #1
ID : 2
Format : AC-3
Format/Info : Audio Coding 3
Mode extension : CM (complete main)
Format settings, Endianness : Big
Codec ID : A_AC3
Duration : 1h 53mn
Bit rate mode : Constant
Bit rate : 448 Kbps
Channel(s) : 6 channels
Channel positions : Front: L C R, Side: L R, LFE
Sampling rate : 48.0 KHz
Bit depth : 16 bits
Compression mode : Lossy
Stream size : 365 MiB (24%)
Title : monu987
Language : Hindi Original DVD 5.1 Channel
Default : Yes
Forced : Yes

Audio #2
ID : 3
Format : AC-3
Format/Info : Audio Coding 3
Mode extension : CM (complete main)
Format settings, Endianness : Big
Codec ID : A_AC3
Duration : 1h 53mn
Bit rate mode : Constant
Bit rate : 224 Kbps
Channel(s) : 6 channels
Channel positions : Front: L C R, Side: L R, LFE
Sampling rate : 48.0 KHz
Bit depth : 16 bits
Compression mode : Lossy
Stream size : 182 MiB (12%)
Title : monu987
Language : English
Default : No
Forced : No



Special Thanks To Sher Khan Bro For Original DVD Hindi Audio Source

Note: No Watermarks/Tags in Audio & Video ;).... Enjoy Movie:)



8162e3058347c8b7371505aa22a5304f.th.png 54e47ddd8d668d2b37133eb1aa7b3bf1.th.png d740f00096973d1485d39dc29eb70efd.th.png 7300b194a7adeba5edfb5cce7689687a.th.png 056430bc7d7bdc446b3841ec2d76ea23.th.png 6eba719d1ed1f14eb24e7bf15937c402.th.png 629b7b3d412aee19186061bc5ddab1b8.th.png 19230c7fe1c206af76ce47ab1b52661e.th.png
Category:Movies > Hollywood Dub
Lang:Hindi
Total Size:1.48 GB



Sample
:download:

|| Download This Movie Via Single Resumable Links Size: 1.46 GB ||

Direct-1 Google Drive | Direct-2 | Direct-3 |

Watch Online Click Here

Post a Comment

0 Comments