Cristiano Ronaldo: The World at His Feet (2014) BluRay 720p x264 Dual Audio {Hindi DD.2.0-Eng}-maverick [Exclusive]


Poster


iMDB
Imdb Picture Title: Cristiano Ronaldo: World at His Feet
Year: 2014
Runtime: 54 minutes
Votes: 1713
Rating: 6.5/10
Language: English
Country: USA
All Genres: Documentary, Biography, Sport
Plot Outline: Cristiano Ronaldo: The World at His Feet follows the footballer from his beginnings in Portugal, breakthrough start with Manchester United and current career at Real Madrid.
Director: Tara Pirnia
Writing By: Nick Silverman,
Produced By: Mark Lindsay Chapman,Cheryl Gibbs,Tara Pirnia,Lise Romanoff,Ariane Shahbazi,Tony Taglienti,Melissa Tejeda,
Music: Jabari Steward
Plot:
Cristiano Ronaldo: The World at His Feet follows the footballer from his beginnings in Portugal, breakthrough start with Manchester United and current career at Real Madrid.
- Written by Matthew Griffin
Cast:
Benedict Cumberbatch as Narrator
Cristiano Ronaldo as Himself
David Beckham as Himself
Paul Cann as Himself
Janet Aguirre as Ronaldo's Mother
Julian Bane as Ronaldo's Doctor
Johnny Bolton as Sir Alex Ferguson
Tony Carr as
Raymond Crawford as Himself
Craig Hamilton-Parker as


Details
Name:Cristiano Ronaldo: The World at His Feet (2014) BluRay 720p x264 Dual Audio {Hindi DD.2.0-Eng}-maverick [Exclusive]
Description:
Cristiano Ronaldo: The World at His Feet (2014) BluRay 720p x264 Dual Audio {Hindi DD.2.0-Eng}-maverick [Exclusive]

cristiano-ronaldo-the-world-at-his-feet_345222

General
Complete name : Cristiano.Ronaldo.World.at.His.Feet.2014.720p.BluRay.x264.Dual.Audio.{Hindi.DD.2.0-Eng}-maverick [Exclusive].mkv
Format : Matroska
Format version : Version 4 / Version 2
File size : 519 MiB
Duration : 57mn 21s
Overall bit rate : 1 266 Kbps


Video
ID : 1
Format : AVC
Format/Info : Advanced Video Codec
Format profile : High@L4.1
Format settings, CABAC : Yes
Format settings, ReFrames : 5 frames
Codec ID : V_MPEG4/ISO/AVC
Duration : 57mn 19s
Bit rate : 1 000 Kbps
Width : 1 280 pixels
Height : 720 pixels
Display aspect ratio : 16:9
Frame rate mode : Constant
Frame rate : 25.000 fps
Color space : YUV
Chroma subsampling : 4:2:0
Bit depth : 8 bits
Scan type : Progressive
Bits/(Pixel*Frame) : 0.043
Stream size : 410 MiB (79%)
Title : maverick
Writing library : x264 core 146 r2538 121396c
Language : English
Default : Yes
Forced : Yes
Color range : Limited
Color primaries : BT.709
Matrix coefficients : BT.709

Audio #1
ID : 2
Format : AC-3
Format/Info : Audio Coding 3
Mode extension : CM (complete main)
Format settings, Endianness : Big
Codec ID : A_AC3
Duration : 57mn 21s
Bit rate mode : Constant
Bit rate : 192 Kbps
Channel(s) : 2 channels
Channel positions : Front: L R
Sampling rate : 48.0 KHz
Frame rate : 31.250 fps (1536 spf)
Compression mode : Lossy
Stream size : 78.8 MiB (15%)
Title : maverick
Language : Hindi
Default : Yes
Forced : Yes

Audio #2
ID : 3
Format : AAC
Format/Info : Advanced Audio Codec
Format profile : LC
Codec ID : A_AAC
Duration : 57mn 21s
Bit rate : 72.0 Kbps
Channel(s) : 2 channels
Channel positions : Front: L R
Sampling rate : 48.0 KHz
Frame rate : 46.875 fps (1024 spf)
Compression mode : Lossy
Stream size : 29.7 MiB (6%)
Title : maverick
Language : English
Default : No
Forced : No 

Hindi Audio Source DTH.......Thanks Rider

Note: No Watermarks/Tags in Audio & Video ;).... Enjoy Movie:)


7ccba0236f183f4ab2ce00cafb0d82e7.th.png 4eef435cc341b99956bda067b5e86e9e.th.png a6e722f589bf046c83b0da8ee3be56cc.th.png 34e97e985f04a062cc7c4d4ba31b0e1d.th.png be432371d5d1bf252ef1ecb5c675bdcb.th.png 65592b72c9b8d6ced0c51e95b4f9167b.th.png
Category:Movies > Hollywood Dub
Lang:Hindi
Total Size:535.07 MB



Sample
:download:

|| Download This Movie Via Single Resumable Links Size: 519 MB ||

Direct-1 Google Drive | Direct-2 | Direct-3 |

Watch Online Click Here

Post a Comment

0 Comments