Crazy World Only 4 You

Sorry For The Inconvenience. If You are facing link dead or no google drive file access then inform us via comment

Latest Updates

Saturday, 3 March 2018

Do Lafzon Ki Kahani (2016) Hindi 720p Web-HD x264 AAC - Mafiaking - M2Tv


Poster


iMDB
Imdb Picture Title: Do Lafzon Ki Kahani
Year: 2016
Runtime: 128 minutes
Votes: 786
Rating: 6.6/10
Language: Hindi
Country: India
All Genres: Action, Drama, Romance
Plot Outline: Centered on ex-mixed martial arts artist Sooraj (Randeep Hooda) and sculptor artist Jenny (Kajal Aggarwal). Their fate intertwines when their past are revealed in their blooming relationship.
Director: Deepak Tijori
Writing By: Girish Dhamija,
Produced By: Siddhanta Ashdhir,Suntosh Berajdar,Dhaval Gada,Vikas Katyal,Avinaash Rai,Rajesh Shah,Dhiraj Shetty,Deepak Tijori,
Music: Babli Haque
Plot:
Centered on ex-mixed martial arts artist Sooraj (Randeep Hooda) and sculptor artist Jenny (Kajal Aggarwal). Their fate intertwines when their past are revealed in their blooming relationship.
- Written by Deepak Tijori
Cast:
Kajal Aggarwal as Jenny
Anil George as Srikant
Randeep Hooda as Sooraj
Snehal Kulshreshtha as Truck Owner
Mamik as Om
Yuri Suri as Kevin

Details
Name:Do Lafzon Ki Kahani (2016) Hindi 720p Web-HD x264 AAC - Mafiaking - M2Tv
Description:
Do Lafzon Ki Kahani (2016) Hindi 720p Web-HD x264 AAC - Mafiaking - M2Tv


Do-_Lafzon-_Ki-_Kahani-2016-_By--_Sworld4ufree.Blogspot.Com

General
Complete name : Do Lafzon Ki Kahani (2016) - 720p - WebHD-Rip - Hindi - x264 - AAC - Mafiaking - M2Tv.mkv
Format : Matroska
File size : 947 MiB
Duration : 2 h 2 min
Overall bit rate : 1 078 kb/s

Video
ID : 1
Format : AVC
Codec ID : V_MPEG4/ISO/AVC
Duration : 2 h 2 min
Bit rate : 950 kb/s
Width : 1 280 pixels
Height : 544 pixels
Display aspect ratio : 2.35:1
Frame rate mode : Constant
Stream size : 834 MiB (88%)
Title : Mafiaking
Language : Hindi
Default : Yes
Forced : No

Audio
ID : 2
Format : AAC
Duration : 2 h 2 min
Bit rate : 126 kb/s
Channel(s) : 2 channels
Stream size : 111 MiB (12%)
Title : Mafiaking
Language : Hindi
Default : Yes
Forced : No

u0v7J.th.png u0Q48.th.png u0Pct.th.png u028m.th.png u0Ubg.th.png u0xy5.th.png u0AXA.th.png u0BFR.th.png u0OKe.th.png u0gLU.th.png u0eRK.th.png u0cUs.th.png u0YLV.th.png u0LGc.th.png
Category:Movies > Bollywood
Lang:Hindi
Total Size:952.58 MB



Sample
:download:

|| Download This Movie Via Single Resumable Links Size: 947 MB ||

Direct-1 Google Drive | Direct-2 | Direct-3 |

Watch Online Click Here

No comments:

Post a Comment