Crazy World Only 4 You

Sorry For The Inconvenience. If You are facing link dead or no google drive file access then inform us via comment

Latest Updates

Tuesday, 13 March 2018

Ferdinand (2017) BluRay 720p x264 Dual Audio [Hindi DD 5.1 - Eng 2ch] AAC Esub ~Katyayan~


Poster


iMDB
Imdb Picture Title: Ferdinand
Year: 2017
Runtime: 108 minutes
Votes: 1969
Rating: 6.8/10
Language: English
Country: USA
All Genres: Animation, Adventure, Comedy, Family, Fantasy
Plot Outline: After Ferdinand, a bull with a big heart, is mistaken for a dangerous beast, he is captured and torn from his home. Determined to return to his family, he rallies a misfit team on the ultimate adventure.
Tagline: Built to fight. Born to love.
Director: Carlos Saldanha
Writing By: Munro Leaf,Robert Lawson,Ron Burch,David Kidd,Don Rhymer,Robert L. Baird,Tim Federle,Brad Copeland,
Produced By: Bruce Anderson,John Davis,Lori Forte,Lisa Marie Stetler,Chris Wedge,
Music: John Powell
Cast:
Jack Gore as Young Valiente
Jet Jurgensmeyer as Young Guapo
Nile Diaz as Young Bones
Colin H. Murphy as Young Ferdinand
Carlos Saldanha as Screaming Matador / Additional Voices
Jeremy Sisto as Ferdinand's Father
Bobby Cannavale as Valiente's Father / Valiente
Raúl Esparza as Moreno
Luis Carlos de La Lombana as Ranch Hand #1
Juanes as Juan
Trailers:
International Trailer
New Trailer
Trailer #2
Trailer #1

Details
Name:Ferdinand (2017) BluRay 720p x264 Dual Audio [Hindi DD 5.1 - Eng 2ch] AAC Esub ~Katyayan~
Description:
  Ferdinand (2017) BluRay 720p x264 Dual Audio [Hindi DD 5.1 - Eng 2ch] AAC Esub ~Katyayan~

 

Thanks To -Ð@Rk.ÐèVi£- For Org. Hindi Audio

www.imdb.com/title/tt3411444/



---=General=---


Format                                   : Matroska
Format version                           : Version 4 / Version 2
File size                                : 1 001 MiB
Duration                                 : 1 h 48 min
Overall bit rate                         : 1 293 kb/s
Movie name                               : Ferdinand (2017) BluRay 720p x264 Dual Audio [Hindi DD 5.1 - Eng 2ch] AAC Esub ~Katyayan~
Encoded date                             : UTC 2018-03-13 15:18:57
Writing application                      : mkvmerge v20.0.0 ('I Am The Sun') 32-bit
Writing library                          : libebml v1.3.5 + libmatroska v1.4.8
Attachments                              : Ferdinand (2017) Poster ~Katyayan~.jpg



---=Video=---



ID                                       : 1
Format                                   : AVC
Format/Info                              : Advanced Video Codec
Format profile                           : High@L4
Format settings, CABAC                   : Yes
Format settings, ReFrames                : 4 frames
Codec ID                                 : V_MPEG4/ISO/AVC
Duration                                 : 1 h 48 min
Bit rate                                 : 925 kb/s
Width                                    : 1 280 pixels
Height                                   : 536 pixels
Display aspect ratio                     : 2.40:1
Frame rate mode                          : Constant
Frame rate                               : 23.976 (24000/1001) FPS
Color space                              : YUV
Chroma subsampling                       : 4:2:0
Bit depth                                : 8 bits
Scan type                                : Progressive
Bits/(Pixel*Frame)                       : 0.056
Stream size                              : 715 MiB (71%)
Title                                    : Ferdinand (2017) BluRay 720p x264 Dual Audio [Hindi DD 5.1 - Eng 2ch] AAC Esub ~Katyayan~
Writing library                          : x264 core 152 r2851 ba24899
Language                                 : English
Default                                  : Yes
Forced                                   : No



---=Audio #1=---



ID                                       : 2
Format                                   : AAC
Format/Info                              : Advanced Audio Codec
Format profile                           : LC
Codec ID                                 : A_AAC
Duration                                 : 1 h 48 min
Bit rate                                 : 110 kb/s
Channel(s)                               : 2 channels
Channel positions                        : Front: L R
Sampling rate                            : 48.0 kHz
Frame rate                               : 46.875 FPS (1024 spf)
Compression mode                         : Lossy
Delay relative to video                  : -21 ms
Stream size                              : 84.9 MiB (8%)
Title                                    : ~Katyayan~
Language                                 : English
Default                                  : No
Forced                                   : No



---=Audio #2=---



ID                                       : 4
Format                                   : AAC
Format/Info                              : Advanced Audio Codec
Format profile                           : LC
Codec ID                                 : A_AAC
Duration                                 : 1 h 48 min
Bit rate                                 : 256 kb/s
Channel(s)                               : 6 channels
Channel positions                        : Front: L C R, Side: L R, LFE
Sampling rate                            : 48.0 kHz
Frame rate                               : 46.875 FPS (1024 spf)
Compression mode                         : Lossy
Delay relative to video                  : -21 ms
Stream size                              : 198 MiB (20%)
Title                                    : ~Katyayan~
Language                                 : Hindi
Default                                  : Yes
Forced                                   : Yes


---=Text=---



ID                                       : 3
Format                                   : UTF-8
Codec ID                                 : S_TEXT/UTF8
Codec ID/Info                            : UTF-8 Plain Text
Duration                                 : 1 h 47 min
Bit rate                                 : 60 b/s
Count of elements                        : 1827
Stream size                              : 47.9 KiB (0%)
Title                                    : ~Katyayan~
Language                                 : English
Default                                  : Yes
Forced                                   : Yes


---=Menu=---



00:00:00.000                             : en:00:00:00.000
00:03:37.801                             : en:00:03:37.801
00:08:10.281                             : en:00:08:10.281
00:11:51.461                             : en:00:11:51.461
00:16:23.524                             : en:00:16:23.524
00:24:14.870                             : en:00:24:14.870
00:28:30.459                             : en:00:28:30.459
00:34:03.124                             : en:00:34:03.124
00:37:53.188                             : en:00:37:53.188
00:40:54.160                             : en:00:40:54.160
00:44:55.359                             : en:00:44:55.359
00:49:15.995                             : en:00:49:15.995
00:53:27.246                             : en:00:53:27.246
00:59:40.952                             : en:00:59:40.952
01:03:20.672                             : en:01:03:20.672
01:06:23.271                             : en:01:06:23.271
01:09:19.822                             : en:01:09:19.822
01:12:18.918                             : en:01:12:18.918
01:17:33.941                             : en:01:17:33.941
01:20:55.059                             : en:01:20:55.059
01:25:33.837                             : en:01:25:33.837
01:30:38.391                             : en:01:30:38.391
01:36:01.839                             : en:01:36:01.839
01:38:01.167                             : en:01:38:01.167


 

Category:Movies > Hollywood Dub
Lang:Hindi
Total Size:1,002.13 MB



:download:

|| Download This Movie Via Single Resumable Links Size: 1001 MB ||

Direct-1 Google Drive | Direct-2 | Direct-3 |

Watch Online Click Here

No comments:

Post a Comment