Crazy World Only 4 You

Sorry For The Inconvenience. If You are facing link dead or no google drive file access then inform us via comment

Latest Updates

Thursday, 15 March 2018

I Am Bruce Lee (2011) BluRay 720p x264 Dual Audio {Hindi.DD.2.0-Eng}-maverick [Exclusive]


Poster


iMDB
Imdb Picture Title: I Am Bruce Lee
Year: 2012
Runtime: 94 minutes
Votes: 3269
Rating: 7.5/10
Language: English
Country: Canada
All Genres: Documentary, Biography
Plot Outline: Bruce Lee is universally recognized as the pioneer who elevated martial arts in film to an art form, and this documentary will reveal why Bruce Lee's flame burns brighter now than the day ...
Tagline: "Water Can Flow Or It Can Crash. Be Water, My Friend." - Bruce Lee
Director: Pete McCormack
Writing By: Pete McCormack,
Produced By: John Barbisan,Tony Chan,Alexander W. Cox,Brian J. Diamond,Donald Gee,Paul Gertz,Shannon Lee,Christopher Martello,Pete McCormack,Derik Murray,Adam Scorgie,Kristopher Storti,Kent Wingerak,
Music: Schaun Tozer
Cast:
Bruce Lee as Himself / Various
Paul Bowman as Himself - Author, Ph.D
Daniele Bolelli as Himself - Martial Artist
Richard Bustillo as Himself - Martial Artist
Kareem Abdul-Jabbar as Hakim (segment of Game of Death)
Muhammad Ali as Himself
Robert Baker as Petrov (segment Fist of Fury)
Jon T. Benn as Thugs Boss (segment Way of the Dragon)
Pierre Berton as Himself - Interviewing Bruce Lee (segment Bruce Lee - The Lost Interview)
Stephan Bonnar as Himself
Trailers:
BL Trailer

Details
Name:I Am Bruce Lee (2011) BluRay 720p x264 Dual Audio {Hindi.DD.2.0-Eng}-maverick [Exclusive]
Description:
I.Am.Bruce.Lee.2011.720p.BluRay.x264.Dual.Audio.{Hindi.DD.2.0-Eng}-maverick [Exclusive]

 


General
Complete name : I.Am.Bruce.Lee.2011.720p.BluRay.x264.Dual.Audio.{Hindi.DD.2.0-Eng}-maverick [Exclusive].mkv
Format : Matroska
Format version : Version 4 / Version 2
File size : 851 MiB
Duration : 1h 30mn
Overall bit rate : 1 319 Kbps


Video
ID : 1
Format : AVC
Format/Info : Advanced Video Codec
Format profile : High@L4.1
Format settings, CABAC : Yes
Format settings, ReFrames : 5 frames
Codec ID : V_MPEG4/ISO/AVC
Duration : 1h 30mn
Bit rate : 1 000 Kbps
Width : 1 280 pixels
Height : 720 pixels
Display aspect ratio : 16:9
Frame rate mode : Constant
Frame rate : 25.000 fps
Color space : YUV
Chroma subsampling : 4:2:0
Bit depth : 8 bits
Scan type : Progressive
Bits/(Pixel*Frame) : 0.043
Stream size : 645 MiB (76%)
Title : maverick
Writing library : x264 core 142 r2431 ac76440
Language : English
Default : Yes
Forced : Yes
Color range : Limited
Color primaries : BT.709
Matrix coefficients : BT.709

Audio #1
ID : 2
Format : AC-3
Format/Info : Audio Coding 3
Format profile : Dolby Digital
Mode extension : CM (complete main)
Format settings, Endianness : Big
Codec ID : A_AC3
Duration : 1h 30mn
Bit rate mode : Constant
Bit rate : 224 Kbps
Channel(s) : 2 channels
Channel positions : Front: L R
Sampling rate : 48.0 KHz
Frame rate : 31.250 fps (1536 spf)
Compression mode : Lossy
Stream size : 145 MiB (17%)
Title : maverick
Language : Hindi
Default : Yes
Forced : Yes

Audio #2
ID : 3
Format : AAC
Format/Info : Advanced Audio Codec
Format profile : LC
Codec ID : A_AAC
Duration : 1h 30mn
Bit rate : 93.2 Kbps
Channel(s) : 2 channels
Channel positions : Front: L R
Sampling rate : 48.0 KHz
Frame rate : 46.875 fps (1024 spf)
Compression mode : Lossy
Stream size : 60.1 MiB (7%)
Title : maverick
Language : English
Default : No
Forced : No

Hindi Audio Source DTH.......Thanks Shubham
Perfect Synced & Edited by Me.


Note: No Watermarks/Tags in Audio & Video ;).... Enjoy Movie:)


           
Category:Movies > Hollywood Dub
Lang:Hindi
Total Size:861.23 MB



:download:

|| Download This Movie Via Single Resumable Links Size: 851 MB ||

Direct-1 Google Drive | Direct-2 | Direct-3 |

Watch Online Click Here

No comments:

Post a Comment