Crazy World Only 4 You

Sorry For The Inconvenience. If You are facing link dead or no google drive file access then inform us via comment

Latest Updates

Friday, 9 March 2018

John Wick Chapter 2 (2017) BluRay 720p x264 Dual Audio [Hindi DD 2.0 - Eng 2.0] AAC Esub ~Katyayan~


Poster


iMDB
Imdb Picture Title: John Wick: Chapter 2
Year: 2017
Runtime: 122 minutes
Votes: 84636
Rating: 8.1/10
Language: English, Italian
Country: USA, Hong Kong, Italy, Canada
All Genres: Action, Crime, Thriller
Plot Outline: After returning to the criminal underworld to repay a debt, John Wick discovers that a large bounty has been put on his life.
Tagline: Never stab the devil in the back
Director: Chad Stahelski
Writing By: Derek Kolstad,Derek Kolstad,
Produced By: Robert Bernacchi,Kevin Scott Frakes,Basil Iwanyk,Erica Lee,David Leitch,Qiuyun Long,Jennifer Madeloff,Marco Valerio Pugini,Vishal Rungta,Holly S. Rymon,Bo Shen,Jeff G. Waxman,Shixing Zhou,
Music: Tyler Bates Joel J. Richard
Plot:
After returning to the criminal underworld to repay a debt, John Wick discovers that a large bounty has been put on his life.
- Written by Anonymous
Cast:
Keanu Reeves as John Wick
Riccardo Scamarcio as Santino D'Antonio
Ian McShane as Winston
Ruby Rose as Ares
Common as Cassian
Claudia Gerini as Gianna D'Antonio
Lance Reddick as Charon
Laurence Fishburne as Bowery King
Tobias Segal as Earl
John Leguizamo as Aurelio
Trailers:
International Trailer
Teaser Trailer


Details
Name:John Wick Chapter 2 (2017) x264 720p BluRay Eng Subs {Dual Audio} [Hindi ORG DD 2.0 + English 2...
Description:
John Wick Chapter 2 (2017) BluRay 720p x264 Dual Audio [Hindi DD 2.0 - Eng 2.0] AAC Esub ~Katyayan~



!!!.... Never Stab The Devil In The Back ..!!!



~:: PLOT ::~

Bound by an inescapable blood debt to the Italian crime lord, Santino D'Antonio, and with his precious 1969 Mustang still stolen, John Wick, the taciturn and pitiless assassin who thirsts for seclusion, is forced to visit Italy to honour his promise. But soon, the Boogeyman will find himself dragged into an impossible task in the heart of Rome's secret criminal society, as every killer in the business dreams of cornering the legendary Wick who now has an enormous price on his head. Drenched in blood and mercilessly hunted down, John Wick can surely forget a peaceful retirement--but above all--in this lethal ballet of bullets, can he make it out in one piece?

::: INFO :::

---=General=---



Format                                   : Matroska
Format version                           : Version 4 / Version 2
File size                                : 958 MiB
Duration                                 : 2 h 2 min
Overall bit rate                         : 1 095 kb/s
Movie name                               : John Wick Chapter 2 (2017) BluRay 720p x264 Dual Audio [Hindi DD 2.0 - Eng 2.0] AAC Esub ~Katyayan~


---=Video=---


ID                                       : 1
Format                                   : AVC
Format/Info                              : Advanced Video Codec
Format profile                           : High@L3.1
Format settings, CABAC                   : Yes
Format settings, ReFrames                : 4 frames
Codec ID                                 : V_MPEG4/ISO/AVC
Duration                                 : 2 h 2 min
Bit rate                                 : 845 kb/s
Width                                    : 1 280 pixels
Height                                   : 536 pixels
Display aspect ratio                     : 2.40:1
Frame rate mode                          : Constant
Frame rate                               : 23.976 (24000/1001) FPS
Color space                              : YUV
Chroma subsampling                       : 4:2:0
Bit depth                                : 8 bits
Scan type                                : Progressive
Bits/(Pixel*Frame)                       : 0.051
Stream size                              : 739 MiB (77%)
Title                                    : John Wick Chapter 2 (2017) BluRay 720p x264 Dual Audio [Hindi DD 2.0 - Eng 2.0] AAC Esub ~Katyayan~
Writing library                          : x264 core 148 r2744 b97ae06
Language                                 : English
Default                                  : Yes
Forced                                   : No



---=Audio #1=---


ID                                       : 2
Format                                   : AAC
Format/Info                              : Advanced Audio Codec
Format profile                           : HE-AAC / LC
Codec ID                                 : A_AAC
Duration                                 : 2 h 2 min
Bit rate                                 : 63.9 kb/s
Channel(s)                               : 2 channels
Channel positions                        : Front: L R
Sampling rate                            : 48.0 kHz / 24.0 kHz
Frame rate                               : 23.438 FPS (1024 spf)
Compression mode                         : Lossy
Delay relative to video                  : 31 ms
Stream size                              : 56.0 MiB (6%)
Title                                    : ~Katyayan~
Language                                 : English
Default                                  : No
Forced                                   : No



---=Audio #2=---


ID                                       : 4
Format                                   : AAC
Format/Info                              : Advanced Audio Codec
Format profile                           : LC
Codec ID                                 : A_AAC
Duration                                 : 2 h 2 min
Bit rate                                 : 183 kb/s
Channel(s)                               : 2 channels
Channel positions                        : Front: L R
Sampling rate                            : 48.0 kHz
Frame rate                               : 46.875 FPS (1024 spf)
Compression mode                         : Lossy
Stream size                              : 161 MiB (17%)
Title                                    : ~Katyayan~
Language                                 : Hindi
Default                                  : Yes
Forced                                   : Yes



---=Text=---


ID                                       : 3
Format                                   : UTF-8
Codec ID                                 : S_TEXT/UTF8
Codec ID/Info                            : UTF-8 Plain Text
Duration                                 : 1 h 54 min
Bit rate                                 : 26 b/s
Count of elements                        : 668
Stream size                              : 22.0 KiB (0%)
Title                                    : ~Katyayan~
Language                                 : English
Default                                  : Yes
Forced                                   : Yes


!!!! :: ScreenShots :: !!!!

Category:Movies > Hollywood Dub
Lang:Hindi
Total Size:959.76 MB



:download:

|| Download This Movie Via Single Resumable Links Size: 958 MB ||

Direct-1 Google Drive | Direct-2 | Direct-3 |

Watch Online Click Here

No comments:

Post a Comment