Crazy World Only 4 You

Sorry For The Inconvenience. If You are facing link dead or no google drive file access then inform us via comment

Latest Updates

Saturday, 3 March 2018

Last Knights (2015) BluRay 720p x264 Dual Audio [Hindi + Eng] Esubs


Poster


iMDB
Imdb Picture Title: Last Knights
Year: 2015
Runtime: 115 minutes
Votes: 32838
Rating: 6.2/10
Language: English
Country: UK, South Korea
All Genres: Action, Adventure
Plot Outline: A fallen warrior rises against a corrupt and sadistic ruler to avenge his dishonored master.
Director: Kazuaki Kiriya
Writing By: Michael Konyves,Dove Sussman,
Produced By: Ryan S. Black,Barry Brooker,Joyce Heeyoung Cho,Chip Diggins,Gary Hamilton,Kate Hong,Luci Y. Kim,Kazuaki Kiriya,Russell Levine,Andrew Mann,Michelle Chubarov McIntosh,Vaclav Mottl,Jay Stern,Jim Thompson,Nick Thurlow,Kevan Van Thompson,Stan Wertlieb,
Music: Satnam Ramgotra Martin Tillman
Cast:
Clive Owen as Raiden
Morgan Freeman as Bartok
Cliff Curtis as Lt. Cortez
Aksel Hennie as Geza Mott
Tsuyoshi Ihara as Ito
Sung-Ki Ahn as Auguste
Payman Maadi as Emperor
Si-yeon Park as Hannah
Noah Silver as Gabriel
Ayelet Zurer as Naomi
Trailers:
Official Trailer
Last Knights Official Trailer


Details
Name:Last Knights (2015) BluRay 720p x264 Dual Audio [Hindi + Eng] Esubs
Description:
Last Knights 2015 x264 720p Dual Audio [Hindi + Eng] BluRay Esubs Exclusive By Maher





Format : Matroska
Format version : Version 4 / Version 2
File size : 899 MiB
Duration : 1 h 48 min
Overall bit rate : 1 158 kb/s
Encoded date : UTC 2018-03-03 10:31:14
Writing application : mkvmerge v9.7.1 ('Pandemonium') 64bit
Writing library : libebml v1.3.4 + libmatroska v1.4.5 / Lavf55.12.100

Video
ID : 2
Format : AVC
Format/Info : Advanced Video Codec
Format profile : Main@L3.1
Format settings, CABAC : Yes
Format settings, ReFrames : 2 frames
Codec ID : V_MPEG4/ISO/AVC
Duration : 1 h 48 min
Bit rate : 643 kb/s
Width : 1 280 pixels
Height : 528 pixels
Display aspect ratio : 2.40:1
Frame rate mode : Constant
Frame rate : 23.976 (24000/1001) FPS
Color space : YUV
Chroma subsampling : 4:2:0
Bit depth : 8 bits
Scan type : Progressive
Bits/(Pixel*Frame) : 0.040
Stream size : 499 MiB (56%)
Default : Yes
Forced : No

Audio #1
ID : 1
Format : AAC
Format/Info : Advanced Audio Codec
Format profile : LC
Codec ID : A_AAC
Duration : 1 h 48 min
Bit rate : 256 kb/s
Channel(s) : 2 channels
Channel positions : Front: L R
Sampling rate : 48.0 kHz
Frame rate : 46.875 FPS (1024 spf)
Compression mode : Lossy
Stream size : 199 MiB (22%)
Language : English
Default : No
Forced : No

Audio #2
ID : 3
Format : MPEG Audio
Format version : Version 1
Format profile : Layer 3
Mode : Joint stereo
Codec ID : A_MPEG/L3
Codec ID/Hint : MP3
Duration : 1 h 48 min
Bit rate mode : Constant
Bit rate : 256 kb/s
Channel(s) : 2 channels
Sampling rate : 44.1 kHz
Frame rate : 38.281 FPS (1152 spf)
Compression mode : Lossy
Stream size : 199 MiB (22%)
Title : By-MAHER
Writing library : LAME3.98.2
Language : Hindi
Default : Yes
Forced : Yes

PAK Dubbing 1st On Net

3a0bbba38e09d05a2c65e76062afedb6.th.png 55d8d2f1d4fa4cb6026969b96cd17767.th.png 011c62b7d5f407399b6e0c05c3945c67.th.png fe046172d386df20751e42378cb3d278.th.png
Category:Movies > Hollywood Dub
Lang:Hindi
Total Size:917.23 MB



Sample
:download:

|| Download This Movie Via Single Resumable Links Size: 899 MB ||

Direct-1 Google Drive | Direct-2 | Direct-3 |

Watch Online Click Here

No comments:

Post a Comment