Crazy World Only 4 You

Sorry For The Inconvenience. If You are facing link dead or no google drive file access then inform us via comment

Latest Updates

Sunday, 11 March 2018

Monsoon Shootout (2017) Hindi 720p WEB-HD x264 - AAC - Mafiaking - M2Tv


Poster


iMDB
Imdb Picture Original Title: Monsoon Shootout
Title: Mousson Rouge
Year: 2013
Runtime: 92 minutes
Votes: 262
Rating: 6.4/10
Language: Hindi
Country: India, UK, Netherlands, France
All Genres: Action, Crime, Drama, Thriller
Plot Outline: As heavy rains lash Mumbai, a cop on his first assignment faces a life altering decision when he must decide to shoot or not. Each decision pits him against a system which demands a compromise of his morals and every choice has a price.
Tagline: The truth is never simple
Director: Amit Kumar
Writing By: Amit Kumar,
Produced By: Gitika Aggarwal,Shahnaab Alam,Martijn de Grunt,Naved Farooqui,Isabelle Huige,Trevor Ingman,Achin Jain,Asif Kapadia,Anurag Kashyap,Guneet Monga,Arun Rangachari,Meraj Shaikh,Lee Stone,Vivek Rangachari,
Music: Atif Afzal Gingger Shankar
Cast:
Vijay Varma as Adi
Nawazuddin Siddiqui as Shiva
Neeraj Kabi as Khan
Geetanjali Thapa as Anu
Farhan Mohammad Hanif Shaikh as Chhotu
Tannishtha Chatterjee as Rani
Sreejita De as Geeta
R. Balasubramaniam as Dagar Bhai
Iravati Harshe as Nishi
Omkar Das Manikpuri as Taxiwallah

Details
Name:Monsoon Shootout (2017) Hindi 720p WEB-HD x264 - AAC - Mafiaking - M2Tv
Description:
Monsoon Shootout (2017) Hindi 720p WEB-HD x264 - AAC - Mafiaking - M2Tv







General
Complete name               : Monsoon Shootout (2017) - 720p - WebHD-Rip - Hindi - x264 - AAC - Mafiaking - M2Tv.mkv
Format                      : Matroska
File size                   : 626 MiB
Duration                    : 1 h 26 min
Overall bit rate            : 1 014 kb/s

Video
ID                          : 1
Format                      : AVC
Codec ID                    : V_MPEG4/ISO/AVC
Duration                    : 1 h 26 min
Bit rate                    : 950 kb/s
Width                       : 1 280 pixels
Height                      : 544 pixels
Display aspect ratio        : 2.35:1
Frame rate mode             : Constant
Frame rate                  : 25.000 FPS
Stream size                 : 587 MiB (94%)
Title                       : Mafiaking
Language                    : Hindi
Default                     : Yes
Forced                      : No

Audio
ID                          : 2
Format                      : AAC
Format/Info                 : Advanced Audio Codec
Duration                    : 1 h 26 min
Bit rate                    : 61.4 kb/s
Channel(s)                  : 2 channels
Channel positions           : Front: L R
Sampling rate               : 48.0 kHz
Stream size                 : 37.9 MiB (6%)
Title                       : Mafiaking
Language                    : Hindi
Default                     : Yes
Forced                      : No

**To View Image In Full Size Click on Thumbnails**



Category:Movies > WEB-HD
Lang:Hindi
Total Size:630.81 MB



:download:

|| Download This Movie Via Single Resumable Links Size: 626 MB ||

Direct-1 Google Drive | Direct-2 | Direct-3 |

Watch Online Click Here

1 comment: