Crazy World Only 4 You

Sorry For The Inconvenience. If You are facing link dead or no google drive file access then inform us via comment

Latest Updates

Saturday, 17 March 2018

Mortdecai (2015) BluRay 720p x264 Dual Audio [Hindi + Eng] Esubs Exclusive By Maher


Poster


iMDB
Imdb Picture Title: Mortdecai
Year: 2015
Runtime: 107 minutes
Votes: 56067
Rating: 5.5/10
Language: English
Country: UK, USA
All Genres: Action, Comedy, Crime, Mystery, Romance
Plot Outline: Juggling angry Russians, the British Mi5, and an international terrorist, debonair art dealer and part time rogue Charlie Mortdecai races to recover a stolen painting rumored to contain a code that leads to lost gold.
Tagline: Sophistication has a name
Director: David Koepp
Writing By: Eric Aronson,Kyril Bonfiglioli,
Produced By: Christi Dembrowski,Johnny Depp,Monique Feig,Kenneth Kokin,Andrew Lazar,Patrick McCormick,Michael Paseornek,Gigi Pritzker,Sam Sarkar,
Music: Mark Ronson Geoff Zanelli
Cast:
Johnny Depp as Mortdecai
Gwyneth Paltrow as Johanna
Paul Bettany as Jock
Ewan McGregor as Martland
Olivia Munn as Georgina
Jonny Pasvolsky as Emil
Michael Culkin as Sir Graham
Ulrich Thomsen as Romanov
Alec Utgoff as Dmitri
Rob de Groot as Vladimir
Trailers:
Mortdecai – Now Playing
International Trailer
Theatrical Trailer
Trailer #1

Details
Name:Mortdecai (2015) BluRay 720p x264 Dual Audio [Hindi + Eng] Esubs Exclusive By Maher
Description:
Mortdecai (2015) BluRay 720p x264 Dual Audio [Hindi + Eng] Esubs Exclusive By Maher
mortdecai_bd_ocard_3d
Format : Matroska
Format version : Version 4 / Version 2
File size : 1 005 MiB
Duration : 1 h 46 min
Overall bit rate : 1 315 kb/s

Video
ID : 1
Format : AVC
Format/Info : Advanced Video Codec
Format profile : High@L4.1
Duration : 1 h 46 min
Bit rate : 966 kb/s
Width : 1 280 pixels
Height : 536 pixels
Display aspect ratio : 2.40:1
Frame rate : 23.976 (24000/1001) FPS
Stream size : 737 MiB (73%)
Writing library : x264 core 123 r2189 35cf912


Audio #1
ID : 2
Format : AAC
Format/Info : Advanced Audio Codec
Format profile : LC
Codec ID : A_AAC
Duration : 1 h 46 min
Bit rate : 93.8 kb/s
Channel(s) : 2 channels
Channel positions : Front: L R
Sampling rate : 48.0 kHz
Frame rate : 46.875 FPS (1024 spf)
Compression mode : Lossy
Stream size : 71.6 MiB (7%)
Language : English
Default : No
Forced : No

Audio #2
ID : 3
Format : AAC
Format/Info : Advanced Audio Codec
Format profile : LC
Codec ID : A_AAC
Duration : 1 h 46 min
Bit rate : 254 kb/s
Channel(s) : 2 channels
Channel positions : Front: L R
Sampling rate : 44.1 kHz
Frame rate : 43.066 FPS (1024 spf)
Compression mode : Lossy
Stream size : 194 MiB (19%)
Title : by-MAHER
Language : Hindi
Default : Yes
Forced : Yes

Text
ID : 4
Format : UTF-8
Codec ID : S_TEXT/UTF8
Codec ID/Info : UTF-8 Plain Text
Duration : 1 h 40 min
Bit rate : 70 b/s
Count of elements : 1366
Stream size : 52.0 KiB (0%)
Default : Yes
Forced : No


479d8943a822f41f665952216d63b52d.th.png 298c81ffa62bb44c3b09052f9e705fed.th.png f31a43e9505cff8d713dda57ca32423d.th.png 54516fd7712984a2c2273a8f6d3be961.th.png
Category:Movies > Hollywood Dub
Lang:Hindi
Total Size:1.00 GB



:download:

|| Download This Movie Via Single Resumable Links Size: 1005 MB ||

Direct-1 Google Drive | Direct-2 | Direct-3 |

Watch Online Click Here

No comments:

Post a Comment