Crazy World Only 4 You

Sorry For The Inconvenience. If You are facing link dead or no google drive file access then inform us via comment

Latest Updates

Friday, 16 March 2018

Raid (2018) - 1CD - DesiPreDVD-Rip - Hindi - x264 - MP3 - Mafiaking - M2Tv


Poster


iMDB
Imdb Picture Title: Raid
Year: 2018
Language: Hindi
Country: India
All Genres: Action, Drama, Thriller
Plot Outline: Based on real events, Raid revolves around Amay Patnaik, a fearless Income Tax officer who carries out a non-stop raid at the mansion of Tauji, the most powerful man in Lucknow.
Tagline: Heroes don't always come in uniform
Director: Raj Kumar Gupta
Writing By: Ritesh Shah,
Produced By: Sanjay Inamdar,Sanjeev Joshi,Abhishek Pathak,Kumar Mangat Pathak,Tarlok Singh,
Music: Amit Trivedi
Cast:
Ajay Devgn as Amay Patnaik
Saurabh Shukla as Tauji
Ileana D'Cruz as
Ajay Singh as I.T. Team Member
Trailers:
Raid Trailer

Details
Name:Raid (2018) Hindi 1CD Pre-DvDRip x264 AAC -ReXStAr
Description:
Raid (2018) - 1CD - DesiPreDVD-Rip - Hindi - x264 - MP3 - Mafiaking - M2Tv






Genere:      Action, Crime, Drama

General
Complete name : Raid (2018) - 1CD - DesiPreDVD-Rip - Hindi - x264 - MP3 - Mafiaking - M2Tv.mkv
Format : Matroska
Format version : Version 4 / Version 2
File size : 700 MiB
Duration : 1 h 40 min
Overall bit rate : 974 kb/s
Movie name : Raid (2018) - 1CD - DesiPreDVD-Rip - Hindi - x264 - MP3 - Mafiaking - M2Tv

Video
ID : 1
Format : AVC
Codec ID : V_MPEG4/ISO/AVC
Duration : 1 h 40 min
Bit rate : 876 kb/s
Width : 640 pixels
Height : 272 pixels
Frame rate : 25.000 FPS
Stream size : 630 MiB (90%)
Title : Mafiaking
Language : Hindi
Default : Yes
Forced : No

Audio
ID : 2
Codec ID/Hint : MP3
Duration : 1 h 40 min
Bit rate mode : Constant
Bit rate : 96.0 kb/s
Channel(s) : 2 channels
Stream size : 69.0 MiB (10%)
Title : Mafiaking
Language : Hindi
Default : Yes
Forced : No 
 **To View Image In Full Size Click on Thumbnails**

Category:Movies > Bollywood
Lang:Hindi
Total Size:704.19 MB



:download:

|| Download This Movie Via Single Resumable Links Size: 700 MB ||

Direct-1 | Direct-2 | Direct-3 |

Watch Online Click Here

No comments:

Post a Comment