Crazy World Only 4 You

Sorry For The Inconvenience. If You are facing link dead or no google drive file access then inform us via comment

Latest Updates

Sunday, 18 March 2018

Rings (2017) BluRay 720p x264 {Dual Audio} [English DD 5.1 + HindiDD 5.1] - Mafiaking - M2Tv


Poster


iMDB
Imdb Picture Title: Rings
Year: 2017
Runtime: 102 minutes
Votes: 17724
Rating: 4.5/10
Language: English
Country: USA, Canada
All Genres: Drama, Horror
Plot Outline: A young woman finds herself on the receiving end of a terrifying curse that threatens to take her life in seven days.
Tagline: Evil is reborn
Director: F. Javier Gutiérrez
Writing By: David Loucka,Jacob Estes,Akiva Goldsman,David Loucka,Jacob Estes,Kôji Suzuki,
Produced By: Chris Bender,Neal Edelstein,Ehren Kruger,Roy Lee,Mike Macari,Laurie MacDonald,Walter F. Parkes,Marc Resteghini,Amy Sayres,J.C. Spink,Riyoko Tanaka,
Music: Matthew Margeson
Plot:
Julia becomes worried about her boyfriend, Holt, when he explores the dark urban legend of a mysterious video said to kill the watcher seven days after viewing. She sacrifices herself to save her boyfriend and in doing so makes a horrifying discovery: there is a "movie within the movie" that no one has ever seen before.
A young woman finds herself on the receiving end of a terrifying curse that threatens to take her life in seven days.
- Written by canady
Cast:
Matilda Anna Ingrid Lutz as Julia
Alex Roe as Holt
Johnny Galecki as Gabriel
Vincent D'Onofrio as Burke
Aimee Teegarden as Skye
Bonnie Morgan as Samara
Chuck David Willis as Blue
Patrick R. Walker as Jamal
Zach Roerig as Carter
Laura Wiggins as Faith
Trailers:
Trailer #2
Trailer #1


Details
Name:Rings (2017) BluRay 720p x264[Dual-Audio] [English DD 5.1 + HindiDD 5.1] - Mafiaking - M2Tv
Description:
Rings (2017) BluRay 720p x264[Dual-Audio] [English DD 5.1 + HindiDD 5.1] - Mafiaking - M2Tv




Genere: Drama, Horror

General
Unique ID : 250056915683683437292560231721574035002 (0xBC1F35CDCEDE0F099572DC068C836E3A)
Complete name : Rings (2017) 720p BluRay x264[Dual-Audio][English DD 5.1 + HindiDD 5.1] - Mafiaking - M2Tv.mkv
Format : Matroska
Format version : Version 4 / Version 2
File size : 1 005 MiB
Duration : 1 h 42 min
Overall bit rate : 1 375 kb/s
Movie name : Rings (2017) 720p BluRay x264[Dual-Audio][English DD 5.1 + HindiDD 5.1] - Mafiaking - M2Tv

Video
ID : 1
Format : AVC
Format/Info : Advanced Video Codec
Format profile : High@L3.1
Format settings, CABAC : Yes
Format settings, ReFrames : 4 frames
Codec ID : V_MPEG4/ISO/AVC
Duration : 1 h 42 min
Bit rate : 925 kb/s
Width : 1 280 pixels
Height : 720 pixels
Display aspect ratio : 16:9
Frame rate mode : Constant
Frame rate : 23.976 (24000/1001) FPS
Color space : YUV
Chroma subsampling : 4:2:0
Bit depth : 8 bits
Scan type : Progressive
Bits/(Pixel*Frame) : 0.042
Stream size : 676 MiB (67%)
Title : Mafiaking
Language : English
Default : Yes
Forced : No

Audio #1
ID : 2
Format : AC-3
Format/Info : Audio Coding 3
Format settings, Endianness : Big
Codec ID : A_AC3
Duration : 1 h 42 min
Bit rate mode : Constant
Bit rate : 224 kb/s
Channel(s) : 6 channels
Channel positions : Front: L C R, Side: L R, LFE
Sampling rate : 48.0 kHz
Frame rate : 31.250 FPS (1536 spf)
Bit depth : 16 bits
Compression mode : Lossy
Stream size : 164 MiB (16%)
Title : Mafiaking
Language : Hindi
Service kind : Complete Main
Default : Yes
Forced : No

Audio #2
ID : 3
Format : AC-3
Format/Info : Audio Coding 3
Format settings, Endianness : Big
Codec ID : A_AC3
Duration : 1 h 42 min
Bit rate mode : Constant
Bit rate : 224 kb/s
Channel(s) : 6 channels
Channel positions : Front: L C R, Side: L R, LFE
Sampling rate : 48.0 kHz
Frame rate : 31.250 FPS (1536 spf)
Bit depth : 16 bits
Compression mode : Lossy
Stream size : 164 MiB (16%)
Title : Mafiaking
Language : English
Service kind : Complete Main
Default : No
Forced : No

8be4a0e6567d3606d88b374314c2692f.th.png 7f4f4023f3cfc1258e5c264e75e8c841.th.png 4921b42dbbec76e1635e9830ab6dab5e.th.png ee76f2ce2a0d619838595eab5bb41507.th.png d5f1dc1ae7181a76638f79ec6fa1927a.th.png 69345737acfac28cfc6e656426a69bb8.th.png 4c7857557d15c5c5bc400b93c0653b00.th.png b087480dcef349ec6c3bc3d57cc96f9e.th.png
Category:Movies > Hollywood Dub
Lang:Hindi
Total Size:1013.88 MB



:download:

|| Download This Movie Via Single Resumable Links Size: 1005 MB ||

Direct-1 Google Drive | Direct-2 | Direct-3 |

Watch Online Click Here

No comments:

Post a Comment