Crazy World Only 4 You

Sorry For The Inconvenience. If You are facing link dead or no google drive file access then inform us via comment

Latest Updates

Monday, 26 March 2018

Sin City: A Dame to Kill For (2014) BluRay 720p x264 Dual Audio [Hindi + Eng] Esubs Exclusive By Maher


Poster


iMDB
Imdb Picture Title: Sin City: A Dame to Kill For
Year: 2014
Runtime: 102 minutes
Votes: 130439
Rating: 6.5/10
Language: English
Country: USA
All Genres: Crime, Thriller
Plot Outline: Some of Sin City's most hard-boiled citizens cross paths with a few of its more reviled inhabitants.
Tagline: There is no justice without sin.
Director: Frank Miller
Robert Rodriguez
Writing By: Frank Miller,Frank Miller,
Produced By: Elizabeth Avellan,Marina Bespalov,Sergei Bespalov,Oleg Boyko,Sam Englebardt,Marty P. Ewing,Adam Fields,Wayne Marc Godfrey,Samuel Hadida,Victor Hadida,Jere Hausfater,Kia Jam,William D. Johnson,Aaron Kaufman,Anton Klimov,Stephen L'Heureux,Marci Madison,Mark C. Manuel,Frank Miller,Kipp Nelson,Ted O'Neal,Tom Proper,Frank Rainone,Alexander Rodnyansky,Robert Rodriguez,Tim Smith,Allyn Stewart,Boris Teterev,Silenn Thomas,Bob Weinstein,Harvey Weinstein,Mark Brooke,
Music: Robert Rodriguez Carl Thiel
Cast:
Mickey Rourke as Marv
Jessica Alba as Nancy
Josh Brolin as Dwight
Joseph Gordon-Levitt as Johnny
Rosario Dawson as Gail
Bruce Willis as Hartigan
Eva Green as Ava
Powers Boothe as Senator Roark
Dennis Haysbert as Manute
Ray Liotta as Joey
Trailers:
Red Band Trailer
Trailer #2
Trailer #1
Trailer #1

Details
Name:Sin City: A Dame to Kill For (2014) BluRay 720p x264 Dual Audio [Hindi + Eng] Esubs Exclusive By Maher
Description:
Sin City: A Dame to Kill For (2014) BluRay 720p x264 Dual Audio [Hindi + Eng] Esubs Exclusive By Maher
cdd4063f56d8593cb7fb0374f78737e8

Format : Matroska
Format version : Version 4 / Version 2
File size : 1.06 GiB
Duration : 1 h 42 min
Overall bit rate : 1 490 kb/s
Encoded date : UTC 2018-03-25 13:26:31
Writing application : mkvmerge v9.7.1 ('Pandemonium') 64bit
Writing library : libebml v1.3.4 + libmatroska v1.4.5
Cover : Yes
Attachments : cover.jpg

Video
ID : 1
Format : AVC
Format/Info : Advanced Video Codec
Format profile : High@L4
Format settings : CABAC / 5 Ref Frames
Format settings, CABAC : Yes
Format settings, RefFrames : 5 frames
Codec ID : V_MPEG4/ISO/AVC
Duration : 1 h 42 min
Bit rate : 1 207 kb/s
Width : 1 280 pixels
Height : 690 pixels
Display aspect ratio : 1.85:1
Frame rate mode : Constant
Frame rate : 23.976 (24000/1001) FPS
Color space : YUV
Chroma subsampling : 4:2:0
Bit depth : 8 bits
Scan type : Progressive
Bits/(Pixel*Frame) : 0.057
Stream size : 881 MiB (81%)
Writing library : x264 core 148 r2694 3b70645
Language : English
Default : Yes
Forced : No

Audio #1
ID : 2
Format : AAC
Format/Info : Advanced Audio Codec
Format profile : LC
Codec ID : A_AAC-2
Duration : 1 h 42 min
Bit rate : 92.0 kb/s
Channel(s) : 2 channels
Channel positions : Front: L R
Sampling rate : 48.0 kHz
Frame rate : 46.875 FPS (1024 SPF)
Compression mode : Lossy
Delay relative to video : 9 ms
Stream size : 67.2 MiB (6%)
Language : English
Default : No
Forced : No

Audio #2
ID : 5
Format : AAC
Format/Info : Advanced Audio Codec
Format profile : LC
Codec ID : A_AAC-2
Duration : 1 h 42 min
Bit rate : 192 kb/s
Channel(s) : 2 channels
Channel positions : Front: L R
Sampling rate : 48.0 kHz
Frame rate : 46.875 FPS (1024 SPF)
Compression mode : Lossy
Stream size : 138 MiB (13%)
Title : By-MAHER
Language : Hindi
Default : Yes
Forced : Yes

Text #1
ID : 3
Format : UTF-8
Codec ID : S_TEXT/UTF8
Codec ID/Info : UTF-8 Plain Text
Duration : 1 h 34 min
Bit rate : 54 b/s
Count of elements : 1408
Stream size : 37.8 KiB (0%)
Language : English
Default : No
Forced : No

Text #2
ID : 4
Format : UTF-8
Codec ID : S_TEXT/UTF8
Codec ID/Info : UTF-8 Plain Text
Duration : 1 h 39 min
Bit rate : 56 b/s
Count of elements : 1533
Stream size : 40.7 KiB (0%)
Language : English
Default : No
Forced : No

It's PAK Dubbing DTH Audio 1st on Net

1b4f19b058161c4b1b693efd24d63bc1.th.png e0f9cdfdb5f58f989756376c3ff4e1b2.th.png 8832716dccba43fbbe8c0642228f559f.th.png b5a12bc292df933f9974e1d368fc8301.th.png
Category:Movies > 720P Bluray
Lang:Hindi
Total Size:1.09 GB



:download:

|| Download This Movie Via Single Resumable Links Size: 1.06 GB ||

Direct-1 Google Drive | Direct-2 | Direct-3 |

Watch Online Click Here

No comments:

Post a Comment