Crazy World Only 4 You

Sorry For The Inconvenience. If You are facing link dead or no google drive file access then inform us via comment

Latest Updates

Thursday, 15 March 2018

Syriana (2005) BluRay 720p x264 Dual Audio {Hindi.DD.Org.2.0-Eng}-maverick


Poster


iMDB
Imdb Picture Title: Syriana
Year: 2005
Runtime: 128 minutes
Votes: 113038
Rating: 7.0/10
Language: English, Urdu, Arabic, Persian, French, Mandarin
Country: USA, United Arab Emirates
All Genres: Drama, Thriller
Plot Outline: A politically charged epic about the state of the oil industry in the hands of those personally involved and affected by it.
Tagline: Everything is connected
Director: Stephen Gaghan
Writing By: Stephen Gaghan,Robert Baer,
Produced By: Sarah Bradshaw,George Clooney,Ben Cosgrove,Jennifer Fox,Georgia Kacandes,Elizabeth Kirkscey,Shannon Lail,Michael Nozik,Jeff Skoll,Steven Soderbergh,
Music: Alexandre Desplat
Plot:
American oil companies Connex and smaller Killen are undergoing a merger, the new company named Connex-Killen. The move is in response to Connex losing a number of oil fields in the Persian Gulf region as Prince Nasir Al-Subaai, his country's foreign minister, and the oldest son of the Emir and thus the heir apparent to the throne, signed a contract with the Chinese instead. As Killen somehow managed to get the contract for the oil fields in Kazahkstan, the merger would give Connex-Killen additional control of the industry in the Middle East. Connex's retained law firm, headed by Dean Whiting, assigns Bennett Holiday to demonstrate to the US Department of Justice that due diligence has been done to allow the merger to proceed i.e. that the merger would not break any antitrust regulations. The US government is unhappy with Prince Nasir's decision to award the contract to the Chinese, and in combination with issues around illegal weapons, the CIA assigns field agent Bob Barnes, who has experience in the Middle East, to assassinate the Prince, whose eventual leadership would further undermine US oil security. Barnes becomes a pawn in the goings-on between the players. Meanwhile, Geneva based Bryan Woodman, an energy analyst, eventually becomes associated with the Emir and his family, largely due to a tragic incident. In the process, Woodman learns of Prince Nasir's western leanings and his want to change radically his country into a western democracy with a diversified economy. If the Emir found out, it could threaten Prince Nasir ascension to the throne and thus derail the democratization process. Through all these manoeuvrings, migrant workers are affected, some who cannot retain work with the changing of companies controlling the oil. Some of those may try to take matters into their own hands for their form of justice.
- Written by Huggo
A missile disappears in Iran, but the CIA has other problems: the heir to an Emirate gives an oil contract to China, cutting out a US company that promptly fires its immigrant workers and merges with a small firm that has landed a Kazakhstani oil contract. The Department of Justice suspects bribery, and the oil company's law firm finds a scapegoat. The CIA also needs one when its plot to kill the Emir-apparent fails. Agent Bob Barnes, the fall guy, sorts out the double cross. An American economist parlays the death of his son into a contract to advise the sheik the CIA wants dead. The jobless Pakistanis join a fundamentalist group. All roads start and end in the oil fields.
- Written by <jhailey@hotmail.com>
Syriana is a thriller of corruption and power related to the oil industry that tells four parallel stories: the CIA agent Bob Barnes with great experience in Middle East that falls in disgrace after an unsuccessful mission dealing missiles in Lebanese Republic; the investigation of the attorney Bennett Holiday related to the merge of two American oil companies, Connex and Killen; the traumatic association of the energy analyst Bryan Woodman with the son of a powerful emir of Emirate; and the social drama of the Pakistani immigrant worker Wasim Khan that is fired by the oil company.
- Written by Claudio Carvalho, Rio de Janeiro, Brazil
A politically charged epic about the state of the oil industry in the hands of those personally involved and affected by it.
- Written by mystic80
Cast:
Kayvan Novak as Arash
George Clooney as Bob Barnes
Amr Waked as Mohammed Sheik Agiza
Christopher Plummer as Dean Whiting
Jeffrey Wright as Bennett Holiday
Chris Cooper as Jimmy Pope
Robert Foxworth as Tommy Barton
Nicky Henson as Sydney Hewitt
Nicholas Art as Riley Woodman
Matt Damon as Bryan Woodman
Trailers:
Syriana



Details
Name:Syriana.2005.720p.BluRay.x264.Dual.Audio.{Hindi.DD.Org.2.0-Eng}
Description:
Syriana.2005.720p.BluRay.x264.Dual.Audio.{Hindi.DD.Org.2.0-Eng}-maveric

3296_front

General
Complete name : Syriana.2005.720p.BluRay.x264.Dual.Audio.{Hindi.DD.Org.2.0-Eng}-maverick.mkv
Format : Matroska
Format version : Version 4 / Version 2
File size : 1.03 GiB
Duration : 2h 7mn
Overall bit rate : 1 154 Kbps


Video
ID : 1
Format : AVC
Format/Info : Advanced Video Codec
Format profile : High@L4
Format settings, CABAC : Yes
Format settings, ReFrames : 9 frames
Codec ID : V_MPEG4/ISO/AVC
Duration : 2h 7mn
Bit rate : 836 Kbps
Width : 1 280 pixels
Height : 528 pixels
Display aspect ratio : 2.40:1
Frame rate mode : Constant
Frame rate : 23.976 (24000/1001) fps
Color space : YUV
Chroma subsampling : 4:2:0
Bit depth : 8 bits
Scan type : Progressive
Bits/(Pixel*Frame) : 0.052
Stream size : 763 MiB (72%)
Title : maverick
Writing library : x264 core 129 r2230 1cffe9f
Language : English
Default : Yes
Forced : Yes

Audio #1
ID : 2
Format : AC-3
Format/Info : Audio Coding 3
Mode extension : CM (complete main)
Format settings, Endianness : Big
Codec ID : A_AC3
Duration : 2h 7mn
Bit rate mode : Constant
Bit rate : 224 Kbps
Channel(s) : 2 channels
Channel positions : Front: L R
Sampling rate : 48.0 KHz
Frame rate : 31.250 fps (1536 spf)
Compression mode : Lossy
Stream size : 205 MiB (19%)
Title : maverick
Language : Hindi
Default : Yes
Forced : Yes

Audio #2
ID : 3
Format : AAC
Format/Info : Advanced Audio Codec
Format profile : LC
Codec ID : A_AAC
Duration : 2h 7mn
Bit rate : 92.0 Kbps
Channel(s) : 2 channels
Channel positions : Front: L R
Sampling rate : 48.0 KHz
Frame rate : 46.875 fps (1024 spf)
Compression mode : Lossy
Stream size : 84.1 MiB (8%)
Title : maverick
Language : English
Default : No
Forced : No

Text
ID : 4
Format : UTF-8
Codec ID : S_TEXT/UTF8
Codec ID/Info : UTF-8 Plain Text
Duration : 1h 58mn
Bit rate : 57 bps
Count of elements : 1324
Stream size : 50.3 KiB (0%)
Title : maverick
Language : English
Default : Yes
Forced : Yes


Hindi Audio Source Original VCD.......Thanks RIDER
Note: No Watermarks/Tags in Audio & Video ;).... Enjoy Movie:)


766f6fbd6070263b7b89fa333830faa0.th.png df45e797f5efc55a8e6143dcc6ff930a.th.png 886ad65daa196bbe4515b013bab1e08a.th.png f0782786a8a613a17b0779bdf367b01f.th.png 573ca54dcf25ac3136a5faa5211c1538.th.png a890253bbd7732cf5cfa9b66c435b2b3.th.png
Category:Movies > Hollywood Dub
Lang:Hindi
Total Size:1.04 GB



:download:

|| Download This Movie Via Single Resumable Links Size: 1.03 GB ||

Direct-1 Google Drive | Direct-2 | Direct-3 |

Watch Online Click Here

No comments:

Post a Comment