The Cabin In The Woods (2012) BluRay 720p x264 Dual Audio [Hindi + Eng] Esubs Exclusive By Maher


Poster


iMDB
Imdb Picture Title: The Cabin in the Woods
Year: 2012
Runtime: 95 minutes
Votes: 313682
Rating: 7.0/10
Language: English, Japanese
Country: USA
All Genres: Fantasy, Horror
Plot Outline: Five friends go for a break at a remote cabin, where they get more than they bargained for, discovering the truth behind the cabin in the woods.
Tagline: If something is chasing you... split up.
Director: Drew Goddard
Writing By: Joss Whedon,Drew Goddard,
Produced By: Jason Clark,John Swallow,Joss Whedon,Lucas D. Hill,
Music: David Julyan
Cast:
Kristen Connolly as Dana
Chris Hemsworth as Curt
Anna Hutchison as Jules
Fran Kranz as Marty
Jesse Williams as Holden
Richard Jenkins as Sitterson
Bradley Whitford as Hadley
Brian White as Truman
Amy Acker as Lin
Tim DeZarn as Mordecai
Trailers:
The Cabin in the Woods
No.2
No. 1


Details
Name:The Cabin In The Woods (2012) BluRay 720p x264 Dual Audio [Hindi + Eng] Esubs Exclusive By Maher
Description:
The Cabin In The Woods (2012) BluRay 720p x264 Dual Audio [Hindi + Eng] Esubs Exclusive By Maher



cabin_in_the_woods_blu_ray_cover_by_themadbutcher-d5f4s2d

Format : Matroska
Format version : Version 4 / Version 2
File size : 823 MiB
Duration : 1 h 35 min
Overall bit rate : 1 211 kb/s
Encoded date : UTC 2018-03-18 10:19:04
Writing application : mkvmerge v9.7.1 ('Pandemonium') 64bit
Writing library : libebml v1.3.4 + libmatroska v1.4.5

Video
ID : 1
Format : AVC
Format/Info : Advanced Video Codec
Format profile : High@L4
Format settings, CABAC : Yes
Format settings, ReFrames : 5 frames
Codec ID : V_MPEG4/ISO/AVC
Duration : 1 h 35 min
Bit rate : 861 kb/s
Width : 1 280 pixels
Height : 536 pixels
Display aspect ratio : 2.40:1
Frame rate mode : Constant
Frame rate : 23.976 (24000/1001) FPS
Color space : YUV
Chroma subsampling : 4:2:0
Bit depth : 8 bits
Scan type : Progressive
Bits/(Pixel*Frame) : 0.052
Stream size : 585 MiB (71%)
Writing library : x264 core 125 r2200 999b753
Default : Yes
Forced : No

Audio #1
ID : 2
Format : AAC
Format/Info : Advanced Audio Codec
Format profile : LC
Codec ID : A_AAC
Duration : 1 h 35 min
Bit rate : 94.0 kb/s
Channel(s) : 2 channels
Channel positions : Front: L R
Sampling rate : 44.1 kHz
Frame rate : 43.066 FPS (1024 spf)
Compression mode : Lossy
Stream size : 63.9 MiB (8%)
Language : English
Default : No
Forced : No

Audio #2
ID : 3
Format : AAC
Format/Info : Advanced Audio Codec
Format profile : LC
Codec ID : A_AAC
Duration : 1 h 35 min
Bit rate : 254 kb/s
Channel(s) : 2 channels
Channel positions : Front: L R
Sampling rate : 44.1 kHz
Frame rate : 43.066 FPS (1024 spf)
Compression mode : Lossy
Stream size : 172 MiB (21%)
Title : By-MAHER
Language : Hindi
Default : Yes
Forced : Yes

Text
ID : 4
Format : UTF-8
Codec ID : S_TEXT/UTF8
Codec ID/Info : UTF-8 Plain Text
Duration : 1 h 28 min
Bit rate : 44 b/s
Count of elements : 984
Stream size : 29.1 KiB (0%)
Default : Yes
Forced : No

b03f22c1cd2e761edd58458f8a7f44c9.th.png 617fccdd9378cc412c5184a724191311.th.png 0350efdedef79a3b690f310ccc72a80b.th.png 4a1b4feb3f231a279ec3d1a5b8687be3.th.png

Category:Movies > Hollywood Dub
Lang:Hindi
Total Size:837.88 MB



:download:

|| Download This Movie Via Single Resumable Links Size: 823 MB ||

Direct-1 Google Drive | Direct-2 | Direct-3 |

Watch Online Click Here

Post a Comment

2 Comments