Crazy World Only 4 You

Sorry For The Inconvenience. If You are facing link dead or no google drive file access then inform us via comment

Latest Updates

Sunday, 4 March 2018

The Holiday (2006) BRRip 720p x264 Dual Audio [Hindi 6ch + Eng 2ch] AAC Esub ~Katyayan~


Poster


iMDB
Imdb Picture Title: The Holiday
Year: 2006
Runtime: 138 minutes
Votes: 205101
Rating: 6.9/10
Language: English
Country: USA
All Genres: Comedy, Romance
Plot Outline: Two women troubled with guy-problems swap homes in each other's countries, where they each meet a local guy and fall in love.
Director: Nancy Meyers
Writing By: Nancy Meyers,
Produced By: Bruce A. Block,Jennifer Eatz,Suzanne McNeill Farwell,Nancy Meyers,
Music: Hans Zimmer
Cast:
Cameron Diaz as Amanda
Kate Winslet as Iris
Jude Law as Graham
Jack Black as Miles
Eli Wallach as Arthur
Edward Burns as Ethan
Rufus Sewell as Jasper
Miffy Englefield as Sophie
Emma Pritchard as Olivia
Sarah Parish as Hannah
Trailers:
The Holiday
The Holiday
The Holiday
The Holiday

    

Details
Name:The Holiday (2006) BRRip 720p x264 Dual Audio [Hindi 6ch + Eng 2ch] AAC Esub ~Katyayan~
Description:
The Holiday (2006) BRRip 720p x264 Dual Audio [Hindi 6ch + Eng 2ch] AAC Esub ~Katyayan~

 

---=General=---

Format                                   : Matroska
Format version                           : Version 4 / Version 2
File size                                : 972 MiB
Duration                                 : 2 h 15 min
Overall bit rate                         : 999 kb/s
Movie name                               : The Holiday (2006) BRRip 720p x264 Dual Audio [Hindi 6ch + Eng 2ch] AAC Esub ~Katyayan~

---=Video=---

ID                                       : 1
Format                                   : AVC
Format/Info                              : Advanced Video Codec
Format profile                           : High@L3.1
Format settings, CABAC                   : Yes
Format settings, ReFrames                : 5 frames
Codec ID                                 : V_MPEG4/ISO/AVC
Duration                                 : 2 h 15 min
Bit rate                                 : 758 kb/s
Width                                    : 1 280 pixels
Height                                   : 696 pixels
Display aspect ratio                     : 1.85:1
Frame rate mode                          : Constant
Frame rate                               : 23.976 (24000/1001) FPS
Color space                              : YUV
Chroma subsampling                       : 4:2:0
Bit depth                                : 8 bits
Scan type                                : Progressive
Bits/(Pixel*Frame)                       : 0.035
Stream size                              : 737 MiB (76%)
Title                                    : The Holiday (2006) BRRip 720p x264 Dual Audio [Hindi 6ch + Eng 2ch] AAC Esub ~Katyayan~
Writing library                          : x264 core 116 r2074 2641b9e
Language                                 : English
Default                                  : Yes
Forced                                   : Yes

---=Audio #1=---

ID                                       : 2
Format                                   : AAC
Format/Info                              : Advanced Audio Codec
Format profile                           : HE-AAC / LC
Codec ID                                 : A_AAC
Duration                                 : 2 h 15 min
Bit rate                                 : 64.0 kb/s
Channel(s)                               : 2 channels
Channel positions                        : Front: L R
Sampling rate                            : 22.05 kHz / 11.025 kHz
Frame rate                               : 10.767 FPS (1024 spf)
Compression mode                         : Lossy
Delay relative to video                  : -83 ms
Stream size                              : 62.1 MiB (6%)
Title                                    : ~Katyayan~
Language                                 : English
Default                                  : No
Forced                                   : No

---=Audio #2=---

ID                                       : 3
Format                                   : AAC
Format/Info                              : Advanced Audio Codec
Format profile                           : HE-AAC / LC
Codec ID                                 : A_AAC
Duration                                 : 2 h 15 min
Bit rate                                 : 174 kb/s
Channel(s)                               : 6 channels
Channel positions                        : Front: L C R, Side: L R, LFE
Sampling rate                            : 88.2 kHz / 44.1 kHz
Frame rate                               : 43.066 FPS (1024 spf)
Compression mode                         : Lossy
Delay relative to video                  : 1 s 417 ms
Stream size                              : 169 MiB (17%)
Title                                    : ~Katyayan~
Language                                 : Hindi
Default                                  : Yes
Forced                                   : Yes

---=Text=---

ID                                       : 4
Format                                   : UTF-8
Codec ID                                 : S_TEXT/UTF8
Codec ID/Info                            : UTF-8 Plain Text
Duration                                 : 2 h 14 min
Bit rate                                 : 64 b/s
Count of elements                        : 1710
Stream size                              : 63.9 KiB (0%)
Title                                    : ~Katyayan~
Language                                 : English
Default                                  : Yes
Forced                                   : Yes

 

Category:Movies > Hollywood Dub
Lang:Hindi
Total Size:973.64 MB



:download:

|| Download This Movie Via Single Resumable Links Size: 972 MB ||

Direct-1 Google Drive | Direct-2 | Direct-3 |

Watch Online Click Here

No comments:

Post a Comment