Crazy World Only 4 You

Sorry For The Inconvenience. If You are facing link dead or no google drive file access then inform us via comment

LightBlog

Latest Updates

Friday, 23 March 2018

The Odyssey (2016) BluRay 720p x264 Dual Audio [Hindi + French] Esubs Exclusive By Maher


Poster


iMDB
Imdb Picture Title: L'odyssée
Year: 2016
Runtime: 122 minutes
Votes: 3195
Rating: 6.7/10
Language: French, English
Country: France, Belgium
All Genres: Adventure, Biography
Plot Outline: Highly influential and a fearlessly ambitious pioneer, innovator, filmmaker, researcher and conservationist, Jacques-Yves Cousteau's aquatic adventure covers roughly thirty years of an inarguably rich in achievements life.
Tagline: The tempestuous life of the biggest seafarer of the 20th century.
Director: Jérôme Salle
Writing By: Jean-Michel Cousteau,Albert Falco,Jérôme Salle,Jérôme Salle,Jérôme Salle,Laurent Turner,
Produced By: Jacques-Henri Bronckart,Olivier Bronckart,Christine De Jekel,Olivier Delbosc,Nathalie Gastaldo,Philippe Godeau,Amanda Law,Philippe Logie,Marc Missonnier,Igor Nola,Jérôme Salle,Eric Vidart Loeb,
Music: Alexandre Desplat
Cast:
Lambert Wilson as Jacques-Yves Cousteau
Pierre Niney as Philippe Cousteau
Audrey Tautou as Simone Cousteau
Laurent Lucas as Philippe Tailliez
Benjamin Lavernhe as Jean-Michel Cousteau
Vincent Heneine as Albert 'Bébert' Falco
Thibault de Montalembert as Etienne Deshaies
Roger Van Hool as Daniel Cousteau dit Daddy
Chloe Hirschman as Jan Cousteau
Adam Neill as David Wolper
Trailers:
UK Trailer

Details
Name:The Odyssey (2016) BluRay 720p x264 Dual Audio [Hindi + French] Esubs Exclusive By Maher
Description:
The Odyssey (2016) BluRay 720p x264 Dual Audio [Hindi + French] Esubs Exclusive By Maher
172703_front

Format : Matroska
Format version : Version 4 / Version 2
File size : 1.22 GiB
Duration : 2 h 2 min
Overall bit rate : 1 416 kb/s

Video
ID : 1
Format : AVC
Format/Info : Advanced Video Codec
Format profile : High@L4.1
Format settings : CABAC / 9 Ref Frames
Format settings, CABAC : Yes
Format settings, RefFrames : 9 frames
Codec ID : V_MPEG4/ISO/AVC
Duration : 2 h 2 min
Bit rate : 1 125 kb/s
Width : 1 280 pixels
Height : 480 pixels
Display aspect ratio : 2.667
Frame rate mode : Constant
Frame rate : 23.976 (24000/1001) FPS
Color space : YUV
Chroma subsampling : 4:2:0
Bit depth : 8 bits
Scan type : Progressive
Bits/(Pixel*Frame) : 0.076
Stream size : 989 MiB (79%)
Writing library : x264 core 133 r2334 a3ac64b
Default : Yes
Forced : No

Audio #1
ID : 2
Format : AAC
Format/Info : Advanced Audio Codec
Format profile : HE-AAC / LC
Format settings : Explicit
Codec ID : A_AAC-2
Duration : 2 h 2 min
Bit rate : 99.9 kb/s
Channel(s) : 2 channels
Channel positions : Front: L R
Sampling rate : 48.0 kHz / 24.0 kHz
Frame rate : 23.438 FPS (1024 SPF)
Compression mode : Lossy
Delay relative to video : 31 ms
Stream size : 87.8 MiB (7%)
Language : French
Default : No
Forced : No

Audio #2
ID : 3
Format : AAC
Format/Info : Advanced Audio Codec
Format profile : LC
Codec ID : A_AAC-2
Duration : 2 h 2 min
Bit rate : 192 kb/s
Channel(s) : 2 channels
Channel positions : Front: L R
Sampling rate : 48.0 kHz
Frame rate : 46.875 FPS (1024 SPF)
Compression mode : Lossy
Stream size : 167 MiB (13%)
Title : By-MAHER
Language : Urdu
Default : Yes
Forced : Yes

Text
ID : 4
Format : UTF-8
Codec ID : S_TEXT/UTF8
Codec ID/Info : UTF-8 Plain Text
Duration : 2 h 1 min
Bit rate : 32 b/s
Count of elements : 1275
Stream size : 28.8 KiB (0%)
Default : Yes
Forced : No

UNCUT Version Movie With Urdu Audio
It's PAK Dubbing DTH Audio 1st on Net

41558ef53a5c6487e6701fc1b571eb94.th.png 2e16df00888e259cf9d81217e0b502e1.th.png f139f38463e6b1233942e405c66dc537.th.png 2fc18aab71c8bd2184e8cadfa5f10b30.th.png
Category:Movies > Hollywood Dub
Lang:Hindi
Total Size:1.24 GB



:download:

|| Download This Movie Via Single Resumable Links Size: 1.22 GB ||

Direct-1 Google Drive | Direct-2 | Direct-3 |

Watch Online Click Here

No comments:

Post a Comment