The Sentinel (2006) BluRay 720p x264 Dual Audio {Hindi Org.DD.2.0-Eng}-maverick


Poster


iMDB
Imdb Picture Title: The Sentinel
Year: 2006
Runtime: 108 minutes
Votes: 44556
Rating: 6.1/10
Language: English
Country: USA
All Genres: Action, Crime, Thriller
Plot Outline: A Secret Service agent is framed as the mole in an assassination attempt on the President. He must clear his name and foil another assassination attempt while on the run from a Secret Service Protective Intelligence Division agent.
Tagline: In 141 years, there's never been a traitor in the Secret Service.... Until Now.
Director: Clark Johnson
Writing By: George Nolfi,Gerald Petievich,
Produced By: Bill Carraro,Michael Douglas,Marcy Drogin,Arnon Milchan,George Nolfi,
Music: Christophe Beck
Cast:
Michael Douglas as Pete Garrison
Kiefer Sutherland as David Breckinridge
Eva Longoria as Jill Marin
Martin Donovan as William Montrose
Ritchie Coster as The Handler
Kim Basinger as 1st Lady Sarah Ballentine
Blair Brown as National Security Advisor
David Rasche as President Ballentine
Kristin Lehman as Cindy Breckinridge
Raynor Scheine as Walter Xavier
Trailers:
The Sentinel
The Sentinel
The Sentinel

Details
Name:The Sentinel (2006) BluRay 720p x264 Dual Audio {Hindi Org.DD.2.0-Eng}-maverick
Description:
The.Sentinel.2006.720p.BluRay.x264.Dual.Audio.{Hindi.Org.DD.2.0-Eng}-maverick

5461_front

General
Complete name : The.Sentinel.2006.720p.BluRay.x264.Dual.Audio.{Hindi.Org.DD.2.0-Eng}-maverick.mkv
Format : Matroska
Format version : Version 4 / Version 2
File size : 1.47 GiB
Duration : 1h 48mn
Overall bit rate : 1 950 Kbps


Video
ID : 1
Format : AVC
Format/Info : Advanced Video Codec
Format profile : High@L4.1
Format settings, CABAC : Yes
Format settings, ReFrames : 4 frames
Codec ID : V_MPEG4/ISO/AVC
Duration : 1h 48mn
Bit rate : 1 500 Kbps
Width : 1 280 pixels
Height : 534 pixels
Display aspect ratio : 2.40:1
Frame rate mode : Constant
Frame rate : 23.976 (23976/1000) fps
Color space : YUV
Chroma subsampling : 4:2:0
Bit depth : 8 bits
Scan type : Progressive
Bits/(Pixel*Frame) : 0.092
Stream size : 1.13 GiB (77%)
Title : maverick
Writing library : x264 core 148 r2597M e86f3a1
Language : English
Default : Yes
Forced : Yes

Audio #1
ID : 2
Format : AC-3
Format/Info : Audio Coding 3
Mode extension : CM (complete main)
Format settings, Endianness : Big
Codec ID : A_AC3
Duration : 1h 48mn
Bit rate mode : Constant
Bit rate : 224 Kbps
Channel(s) : 2 channels
Channel positions : Front: L R
Sampling rate : 48.0 KHz
Frame rate : 31.250 fps (1536 spf)
Compression mode : Lossy
Stream size : 173 MiB (11%)
Title : maverick
Language : Hindi
Default : Yes
Forced : Yes

Audio #2
ID : 3
Format : AAC
Format/Info : Advanced Audio Codec
Format profile : LC
Codec ID : A_AAC
Duration : 1h 48mn
Bit rate : 224 Kbps
Channel(s) : 6 channels
Channel positions : Front: L C R, Side: L R, LFE
Sampling rate : 48.0 KHz
Frame rate : 46.875 fps (1024 spf)
Compression mode : Lossy
Stream size : 173 MiB (11%)
Title : maverick
Language : English
Default : No
Forced : No

Hindi Audio Source Original VCD.......Thanks Rider
Note: No Watermarks/Tags in Audio & Video ;).... Enjoy Movie:)



8ff47bd6af2b0756313638bc85a88f28.th.png b8bea73f0a4bfa05c2ffffdd8cc95fdc.th.png e06c30674c9ff630dd2ab1bddadd181f.th.png 48eb3497e4dc14eed9f5a3cc8cb6225d.th.png 692aa5178c2a121c0370ab0301b88daa.th.png 5ddc624106ed4a6624444556c2f92c60.th.png
Category:Movies > Hollywood Dub
Lang:Hindi
Total Size:1.49 GB



:download:

|| Download This Movie Via Single Resumable Links Size: 1.47 GB ||

Direct-1 Google Drive | Direct-2 | Direct-3 |

Watch Online Click Here

Post a Comment

0 Comments