The Strangers (2008) BluRay 720p x264 [Dual-Audio][English 5.1 + Hindi] - Mafiaking - TeamTNT


Poster


iMDB
Imdb Picture Title: The Strangers
Year: 2008
Runtime: 86 minutes
Votes: 101735
Rating: 6.2/10
Language: English
Country: USA
All Genres: Horror, Mystery, Thriller
Plot Outline: A young couple staying in an isolated vacation home are terrorized by three unknown assailants.
Tagline: What would you do if this was happening to you?
Director: Bryan Bertino
Writing By: Bryan Bertino,
Produced By: Thomas J. Busch,Doug Davison,Joseph Drake,Marc D. Evans,Nathan Kahane,Kelli Konop,Roy Lee,Trevor Macy,Sonny Mallhi,
Music: tomandandy
Cast:
Alex Fisher as Mormon Boy #1
Scott Speedman as James Hoyt
Liv Tyler as Kristen McKay
Kip Weeks as Man in the Mask
Laura Margolis as Pin-Up Girl
Gemma Ward as Dollface
Glenn Howerton as Mike
Peter Clayton-Luce as Mormon Boy #2
Jordan Del Spina as Jordan - 911 caller
Trailers:
The Strangers
The Strangers

Details
Name: The Strangers (2008) BluRay 720p x264 [Dual-Audio][English 5.1 + Hindi] - Mafiaking - TeamTNT
Description:
The Strangers (2008) 720p Blu-Ray x264 [Dual-Audio][English 5.1 + Hindi] - Mafiaking - TeamTNT

THE-_STRANGERS-bluray-cover-shout-factory

15981250a2a3770f9f004bcdf00afac92833ebdb.png


GENRE                                    : Horror | Mystery | Thriller

General
Unique ID                                : 220469908600487845696008924478623434215 (0xA5DCF5BAC2DD8F85B2CBC00D0F27C5E7)
Complete name                            : The Strangers (2008) 720p Blu-Ray x264 [Dual-Audio][English 5.1 + Hindi] - Mafiaking - TeamTNT.mkv
Format                                   : Matroska
Format version                           : Version 4 / Version 2
File size                                : 827 MiB
Duration                                 : 1h 27mn
Overall bit rate                         : 1 321 Kbps
Movie name                               : The Strangers (2008) 720p Blu-Ray x264 [Dual-Audio][English 5.1 + Hindi] - Mafiaking - TeamTNT
Encoded date                             : UTC 2014-08-02 12:07:35
Writing application                      : mkvmerge v7.0.0 ('Where We Going') 32bit built on Jun  9 2014 15:08:34
Writing library                          : libebml v1.3.0 + libmatroska v1.4.1


Video
ID                                       : 1
Format                                   : AVC
Format/Info                              : Advanced Video Codec
Format profile                           : [email protected]
Format settings, CABAC                   : Yes
Format settings, ReFrames                : 4 frames
Codec ID                                 : V_MPEG4/ISO/AVC
Duration                                 : 1h 27mn
Bit rate                                 : 1 000 Kbps
Width                                    : 1 280 pixels
Height                                   : 544 pixels
Display aspect ratio                     : 2.35:1
Frame rate mode                          : Constant
Frame rate                               : 23.976 fps
Color space                              : YUV
Chroma subsampling                       : 4:2:0
Bit depth                                : 8 bits
Scan type                                : Progressive
Bits/(Pixel*Frame)                       : 0.060
Stream size                              : 610 MiB (74%)
Title                                    : Mafiaking@TeamTNT
Language                                 : English
Default                                  : Yes
Forced                                   : No


Audio #1
ID                                       : 2
Format                                   : AC-3
Format/Info                              : Audio Coding 3
Mode extension                           : CM (complete main)
Format settings, Endianness              : Big
Codec ID                                 : A_AC3
Duration                                 : 1h 27mn
Bit rate mode                            : Constant
Bit rate                                 : 128 Kbps
Channel(s)                               : 2 channels
Channel positions                        : Front: L R
Sampling rate                            : 48.0 KHz
Bit depth                                : 16 bits
Compression mode                         : Lossy
Stream size                              : 80.1 MiB (10%)
Title                                    : Mafiaking@TeamTNT
Language                                 : Hindi
Default                                  : Yes
Forced                                   : No


Audio #2
ID                                       : 3
Format                                   : AC-3
Format/Info                              : Audio Coding 3
Mode extension                           : CM (complete main)
Format settings, Endianness              : Big
Codec ID                                 : A_AC3
Duration                                 : 1h 27mn
Bit rate mode                            : Constant
Bit rate                                 : 192 Kbps
Channel(s)                               : 6 channels
Channel positions                        : Front: L C R, Side: L R, LFE
Sampling rate                            : 48.0 KHz
Bit depth                                : 16 bits
Compression mode                         : Lossy
Stream size                              : 120 MiB (15%)
Title                                    : Mafiaking@TeamTNT
Language                                 : English
Default                                  : No
Forced                                   : No

screenshots-icon.png
08fe35e24a71d033d2c3f87b23b1a4d7.th.jpg 9f3770bdc29d5f7c8a20a63d820bfb7a.th.jpg 25be449762b0819c2c88033494218ab1.th.jpg e096cb6c37125f08030e5e3e04fe1ae1.th.jpg 6c18cbad2a5b48e85babdab84a162ce8.th.jpg 518c70a493a3b8fdb236d0dfb413df36.th.jpg c8fe0fcc7b63e9a47a315ed35e627ac7.th.jpg 8b1fa44fe7a39b213c76f9a6d73fd608.th.jpg 4f299312cd5625574497eeecf3a1068b.th.jpg 5414451cb3f1b93afc626f5a615667ce.th.jpg fb7ca84bb5fc2228355e14c09a5e2a25.th.jpg 3bed63aa872ffd34673d4a121a4f7f9a.th.jpg 42b3b569ef199b7b021cdbedffa6ee2e.th.jpg 59e038d7d8a95889cecec105220b4eda.th.jpg
Category:Movies > Hollywood Dub
Lang:Hindi
Total Size:838.40 MB



Sample
:download:

|| Download This Movie Via Single Resumable Links Size: 827 MB ||

Direct-1 Google Drive | Direct-2 | Direct-3 |

Watch Online Click Here

Post a Comment

0 Comments