Crazy World Only 4 You

Sorry For The Inconvenience. If You are facing link dead or no google drive file access then inform us via comment

Latest Updates

Saturday, 31 March 2018

The VVitch: A New-England Folktale (2015) BluRay 720p Dual Audio x264 [Hindi DD5.1 - Eng] [Team SSX]


Poster
91F9v2BtZXgL._SX342_.jpg


iMDB
Imdb Picture Original Title: The VVitch: A New-England Folktale
Title: The Witch
Year: 2015
Runtime: 92 minutes
Votes: 105397
Rating: 6.8/10
Language: English
Country: USA, UK, Canada, Brazil
All Genres: Horror, Mystery
Plot Outline: A family in 1630s New England is torn apart by the forces of witchcraft, black magic and possession.
Tagline: A New-England Folktale
Director: Robert Eggers
Writing By: Robert Eggers,
Produced By: Daniel Bekerman,Thomas Benski,Jonathan Bronfman,Joel Burch,Brian Campbell,Rosalie Chilelli,Chris Columbus,Eleanor Columbus,Mark Gingras,Julia Godzinskaya,Lauren Haber,Alexandra Johnes,Lars Knudsen,Ethan Lazar,Sophie Mas,Lon Molnar,Lucas Ochoa,Jodi Redmond,Michael Sackler,Alex Sagalchik,Lourenço Sant'Anna,Rodrigo Teixeira,Jay Van Hoy,
Music: Mark Korven
Plot:
New England, 1630: William and Katherine try to lead a devout Christian life, homesteading on the edge of an impassible wilderness, with five children. When their newborn son mysteriously vanishes and their crops fail, the family begins to turn on one another. 'The Witch' is a chilling portrait of a family unraveling within their own sins, leaving them prey for an inescapable evil.
In the Seventeenth Century, in New England, the farmer William and his family are banished from the Puritan plantation controlled by the church due to differences in religion principles. William leaves the spot with his wife Katherine; his teenage daughter Thomasin; his son Caleb and the twins Mercy and Jonas and settles at the edge of a forest. They build a small house and a barn and meanwhile Katherine delivers the baby Samuel. One day, Thomasin is playing with Samuel near the forest and the baby mysteriously vanishes. The family unsuccessfully seeks Sam out and Katherine becomes insane, praying all the time and mistreating and blaming her daughter for everything wrong in their lives. However, Sam was abducted and slaughtered by a witch that lives in the woods that used his blood to paint her body. William goes to the forest to hunt since the crop has failed and he confides to his son that he sold Katherine's silver goblet o buy supplies. However he is a bad hunter and misses his target. In the farm, the twins tell Thomasin that they speak to the goat Black Phillip. While having dinner, Katherine accuses Thomasin of losing her cup and William does not tell the truth. During the night, Thomasin and the children overhear her mother telling William to deliver Thomasin to work for another family. Early in the morning, Caleb, Thomasin, their dog and the family horse go to hunt in the woods. However Thomasin falls from the horse and faints, Caleb becomes lost in the woods and stumbles upon his dead dog first and upon a seductive woman later. William finds Thomasin and Katherine confronts her about Caleb's fate. When the boy returns naked and with fever, the twins accuse Thomasnin of witchcraft and she discloses that they speak to the goat, in the beginning of the tragic end of their family.
- Written by Claudio Carvalho, Rio de Janeiro, Brazil
A family in 1630s New England is torn apart by the forces of witchcraft, black magic and possession.
- Written by Keith Simanton
Cast:
Anya Taylor-Joy as Thomasin
Ralph Ineson as William
Kate Dickie as Katherine
Harvey Scrimshaw as Caleb
Ellie Grainger as Mercy
Lucas Dawson as Jonas
Julian Richings as Governor
Bathsheba Garnett as The Witch
Sarah Stephens as The Witch, Young
Daniel Chaudhry as Black Phillip
Trailers:
Trailer #2
Trailer Commentary: Robert Eggers, Director of 'The Witch'
The Witch | Official Trailer

Details
Name:The VVitch: A New-England Folktale (2015) BluRay 720p Dual Audio x264 [Hindi DD5.1 - Eng] [Team SSX]
Description:
The VVitch: A New-England Folktale (2015) BluRay 720p Dual Audio x264 [Hindi DD5.1 - Eng] [Team SSX]

91Ni4zjKr4L._SL1500_.jpg
General

Format                                   : Matroska
Format version                           : Version 4 / Version 2
File size                                : 926 MiB
Duration                                 : 1 h 32 min
Overall bit rate                         : 1 401 kb/s


Video
ID                                       : 1
Format                                   : AVC
Format/Info                              : Advanced Video Codec
Codec ID                                 : V_MPEG4/ISO/AVC
Duration                                 : 1 h 32 min
Bit rate                                 : 900 kb/s
Width                                    : 1 204 pixels
Height                                   : 720 pixels
Display aspect ratio                     : 5:3
Frame rate mode                          : Constant
Frame rate                               : 23.976 (24000/1001) FPS
Color space                              : YUV
Chroma subsampling                       : 4:2:0
Bit depth                                : 8 bits
Scan type                                : Progressive
Bits/(Pixel*Frame)                       : 0.043
Stream size                              : 595 MiB (64%)
Default                                  : Yes
Forced                                   : No

Audio #1
ID                                       : 2
Format                                   : AAC
Format/Info                              : Advanced Audio Codec
Format profile                           : LC
Codec ID                                 : A_AAC-2
Duration                                 : 1 h 32 min
Bit rate                                 : 115 kb/s
Channel(s)                               : 2 channels
Channel positions                        : Front: L R
Sampling rate                            : 48.0 kHz
Frame rate                               : 46.875 FPS (1024 SPF)
Compression mode                         : Lossy
Delay relative to video                  : -43 ms
Stream size                              : 76.1 MiB (8%)
Default                                  : No
Forced                                   : No

Audio #2
ID                                       : 3
Format                                   : AC-3
Format/Info                              : Audio Coding 3
Codec ID                                 : A_AC3
Duration                                 : 1 h 32 min
Bit rate mode                            : Constant
Bit rate                                 : 384 kb/s
Channel(s)                               : 6 channels
Channel positions                        : Front: L C R, Side: L R, LFE
Sampling rate                            : 48.0 kHz
Frame rate                               : 31.250 FPS (1536 SPF)
Bit depth                                : 16 bits
Compression mode                         : Lossy
Delay relative to video                  : -29 ms
Stream size                              : 254 MiB (27%)
Language                                 : Hindi
Service kind                             : Complete Main
Default                                  : Yes
Forced                                   : No






Category:Movies > Hollywood Dub
Lang:Hindi
Total Size:926.16 MB



:download:

|| Download This Movie Via Single Resumable Links Size: 926 MB ||

Direct-1 Google Drive | Direct-2 | Direct-3 |

Watch Online Click Here

No comments:

Post a Comment