Crazy World Only 4 You

Sorry For The Inconvenience. If You are facing link dead or no google drive file access then inform us via comment

Latest Updates

Tuesday, 13 March 2018

Welcome 2 Karachi (2015) Hindi 720p WEB-HD x264 AC3 DD 5.1 - Esub ~ Ranvijay


Poster


iMDB
Imdb Picture Original Title: Welcome to Karachi
Title: Welcome 2 Karachi
Year: 2015
Runtime: 131 minutes
Votes: 736
Rating: 4.4/10
Language: Urdu, Hindi, English
Country: India
All Genres: Adventure, Comedy, Crime, Thriller, War
Plot Outline: Two men from India land in Karachi, Pakistan, without their passports. They get trapped by the Taliban and desperately try to find a way to get back to India.
Director: Ashish R. Mohan
Writing By: Kushal Ved Bakshi,Vrajesh Hirjee,Danish Hussain,Ashish R. Mohan,
Produced By: Vashu Bhagnani,Vicky Bhatia,Rahul Dhanak,Zia Khan,
Music: Jeet Gannguli
Plot:
Two men from India land in Karachi, Pakistan, without their passports. They get trapped by the Taliban and desperately try to find a way to get back to India.

Cast:
Arshad Warsi as Shammi
Jackky Bhagnani as Kedar
Lauren Gottlieb as Agent Shazia
Kumud Pant as Gang Member
Asim Ahmed as Exchange Officer, Security, Passenger
Fozia Ahmed as Air Hostess, Receptionist, Passenger,
Nausheen Ahmed as Senior Nurse
Hayley-Marie Axe as Dorothy Sands
Nigel Barber as Commander Branson
Kamal Bharati as Wedding guest

Details
Name:Welcome 2 Karachi (2015) 720p WEB-HD x264 AC3 DD 5.1 - Esub ~ Ranvijay
Description:
Welcome 2 Karachi (2015) 720p WEB-HD x264 AC3 DD 5.1 - Esub ~ Ranvijay

Welcome-2-_Karachi-2015-_By--_Sworld4ufree.Blogspot.Com

Source DTOne

Format                                   : Matroska

Format version                           : Version 4 / Version 2

File size                                : 1.49 GiB

Duration                                 : 2 h 3 min

Overall bit rate                         : 1 726 kb/s

Movie name                               : Welcome 2 Karachi (2015) 720p WEB-HD x264 AC3 DD 5.1 - Esub ~ Ranvijay



Video

Duration                                 : 2 h 3 min

Bit rate                                 : 1 500 kb/s

Width                                    : 1 280 pixels

Height                                   : 544 pixels

Display aspect ratio                     : 2.35:1

Frame rate mode                          : Constant

Frame rate                               : 25.000 FPS

Color space                              : YUV

Chroma subsampling                       : 4:2:0

Bit depth                                : 8 bits

Default                                  : Yes

Forced                                   : No



Audio

ID                                       : 2

Format                                   : AC-3

Format/Info                              : Audio Coding 3

Codec ID                                 : A_AC3

Duration                                 : 2 h 3 min

Bit rate mode                            : Constant

Bit rate                                 : 224 kb/s

Channel(s)                               : 6 channels

Channel positions                        : Front: L C R, Side: L R, LFE

Sampling rate                            : 48.0 kHz

Frame rate                               : 31.250 FPS (1536 SPF)

Bit depth                                : 16 bits

Compression mode                         : Lossy

Delay relative to video                  : -5 ms

Stream size                              : 198 MiB (13%)

Title                                    : ~Ranvijay~

Language                                 : Hindi

Service kind                             : Complete Main

Default                                  : Yes

Forced                                   : No



Text

ID                                       : 3

Format                                   : UTF-8

Codec ID                                 : S_TEXT/UTF8

Codec ID/Info                            : UTF-8 Plain Text

Duration                                 : 1 h 59 min

Bit rate                                 : 61 b/s

Count of elements                        : 1749

Stream size                              : 53.7 KiB (0%)

Title                                    : ~Ranvijay~

Language                                 : English

Default                                  : Yes

Forced                                   : No


0c679c245e264ad721e5b35e0f905f89.th.png d1d1ef8d6a1108a0909fdc02cd0a0baf.th.png 77906303f16b23ce2332641592a77601.th.png 7e4c51548155488afe2fec82f0a7cc28.th.png 0809384114dc9e0e9de5aeb78cf60cf2.th.png 5ba55f020d79d05a83c9b94d27ee2811.th.png 9b70012afd8727ecaf7e0ecd44f42444.th.png 5c387226874bee3117eb311b33b45ac6.th.png 27968e411da31c032cbc42512041c78e.th.png 183dff1815f64915881062790a7182e9.th.png 7c09bdc12514ddf6d4dc810db5763f50.th.png 07f62713ece5f91b50fb535c7ea46c03.th.png 4c11422827569d11e392a6abb0a2048f.th.png 015d4eff0b982dada263f82e8cbc4be4.th.png 2f18014dfbb8ef876b6963147748ee7e.th.png c3ffd8f39b4d3f1620fb6c7aac5318e2.th.png a9582c3b45f86ef2d073d596cda66022.th.png 87f87c9cb93a723a8be280973cbacc13.th.png
Category:Movies > Bollywood
Lang:Hindi
Total Size:1.49 GB





:download:

|| Download This Movie Via Single Resumable Links Size: 1.49 GB ||

Direct-1 Google Drive | Direct-2 | Direct-3 |

Watch Online Click Here

No comments:

Post a Comment