Crazy World Only 4 You

Sorry For The Inconvenience. If You are facing link dead or no google drive file access then inform us via comment

Latest Updates

Monday, 16 April 2018

Amazon Obhijaan (2017) 720p HDRip Line Auds [Telugu + Tamil + Hindi + Bengali] - 1.4GB


Poster


iMDB
Imdb Picture Title: Amazon Obhijaan
Year: 2017
Runtime: 140 minutes
Votes: 499
Rating: 6.4/10
Language: Bengali, Assamese, Hindi, Tamil, Telugu, Oriya
Country: India
All Genres: Action, Adventure, Thriller
Plot Outline: Amazon Obhijaan will see daredevil adventurer Shankar Choudhury traverse the length and breadth of South America, including the legendary Amazon in search of the mythical city of gold.
Tagline: Biggest Bengali Film
Director: Kamaleswar Mukherjee
Writing By: Kamaleswar Mukherjee,
Produced By: Andrez Castilho,Chic√£o Fill,Shrikant Mohta,Francisco Ramalho Jr.,Mahendra Soni,
Music: Debajyoti Mishra
Cast:
Dev as Shankar
David James as Marco Florian
Svetlana Gulakova as Anna Florian
Laboni Sarkar as Shankar's Mother
Tamal Ray Chowdhury as Shankar's Father
Eduardo Munniz as Ankoma
Roney Facchini as Dr. Ditmer
Marjorie Gerardi as Isabela
Felipe Montanari as Algusto Delgado
Eduardo Semerjian as Edgar Barret

Details
Name:Amazon Obhijaan (2017) 720p HDRip Line Auds [Telugu + Tamil + Hindi + Bengali] - 1.4GB
Description:
Amazon Obhijaan (2017) 720p HDRip Line Auds [Telugu + Tamil + Hindi + Bengali] - 1.4GB

 


Format                                   : Matroska
Format version                           : Version 4 / Version 2
File size                                : 1.37 GiB
Duration                                 : 2 h 18 min
Overall bit rate mode                    : Variable
Overall bit rate                         : 1 419 kb/s

Video
ID                                       : 1
Format                                   : AVC
Format/Info                              : Advanced Video Codec
Format profile                           : Main@L3.1
Format settings                          : CABAC / 4 Ref Frames
Format settings, CABAC                   : Yes
Format settings, RefFrames               : 4 frames
Codec ID                                 : V_MPEG4/ISO/AVC
Duration                                 : 2 h 17 min
Bit rate                                 : 1 085 kb/s
Width                                    : 1 280 pixels
Height                                   : 536 pixels
Display aspect ratio                     : 2.40:1
Frame rate mode                          : Variable
Frame rate                               : 29.245 FPS
Color space                              : YUV
Chroma subsampling                       : 4:2:0
Bit depth                                : 8 bits
Scan type                                : Progressive
Bits/(Pixel*Frame)                       : 0.054
Stream size                              : 1.03 GiB (77%)
Writing library                          : x264 core 112
Language                                 : English
Default                                  : Yes
Forced                                   : No
Color range                              : Limited
Color primaries                          : BT.709
Transfer characteristics                 : BT.709
Matrix coefficients                      : BT.709

Audio #1
ID                                       : 2
Format                                   : MPEG Audio
Format version                           : Version 1
Format profile                           : Layer 3
Format settings                          : Joint stereo / MS Stereo
Codec ID                                 : A_MPEG/L3
Codec ID/Hint                            : MP3
Duration                                 : 2 h 17 min
Bit rate mode                            : Variable
Bit rate                                 : 96.0 kb/s
Channel(s)                               : 2 channels
Sampling rate                            : 44.1 kHz
Frame rate                               : 38.281 FPS (1152 SPF)
Compression mode                         : Lossy
Stream size                              : 95.8 MiB (6%)
Writing library                          : LAME3.99r
Encoding settings                        : -m j -V 4 -q 3 -lowpass 15.1 --abr 96
Language                                 : Telugu
Default                                  : No
Forced                                   : No

Audio #2
ID                                       : 3
Format                                   : AAC
Format/Info                              : Advanced Audio Codec
Format profile                           : LC
Codec ID                                 : A_AAC-2
Duration                                 : 2 h 18 min
Bit rate                                 :
95.8 MiB (6%)
  Channel(s)                               : 2 channels
Channel positions                        : Front: L R
Sampling rate                            : 44.1 kHz
Frame rate                               : 43.066 FPS (1024 SPF)
Compression mode                         : Lossy
Stream size                              : 95.8 MiB (6%)
Language                                 : Bengali
Default                                  : No
Forced                                   : No

Audio #3
ID                                       : 4
Format                                   : MPEG Audio
Format version                           : Version 1
Format profile                           : Layer 3
Format settings                          : Joint stereo / MS Stereo
Codec ID                                 : A_MPEG/L3
Codec ID/Hint                            : MP3
Duration                                 : 2 h 17 min
Bit rate mode                            : Variable
Bit rate                                 : 96.0 kb/s
Channel(s)                               : 2 channels
Sampling rate                            : 44.1 kHz
Frame rate                               : 38.281 FPS (1152 SPF)
Compression mode                         : Lossy
Stream size                              : 94.5 MiB (6%)
Writing library                          : LAME3.99r
Encoding settings                        : -m j -V 4 -q 3 -lowpass 15.1 --abr 96
Language                                 : Hindi
Default                                  : Yes
Forced                                   : Yes

Audio #4
ID                                       : 5
Format                                   : MPEG Audio
Format version                           : Version 1
Format profile                           : Layer 3
Format settings                          : Joint stereo / MS Stereo
Codec ID                                 : A_MPEG/L3
Codec ID/Hint                            : MP3
Duration                                 : 2 h 17 min
Bit rate mode                            : Variable
Bit rate                                 : 96.0 kb/s
Channel(s)                               : 2 channels
Sampling rate                            : 44.1 kHz
Frame rate                               : 38.281 FPS (1152 SPF)
Compression mode                         : Lossy
Stream size                              : 90.1 MiB (5%)
Writing library                          : LAME3.99r
Encoding settings                        : -m j -V 4 -q 3 -lowpass 15.1 --abr 96
Language                                 : Tamil
Default                                  : No
Forced                                   : No

Amazon-Obhijaan-2017-720p-Telugu---Tamil---Hindi---Ben-By--Sworld4ufree.Blogspot.Com.jpg
Category:Movies > Bengali
Lang:Hindi
Total Size:1.37 GB



:download:

|| Download This Movie Via Single Resumable Links Size: 1.37 GB ||

Direct-1 Google Drive | Direct-2 | Direct-3 |

Watch Online Click Here

No comments:

Post a Comment