Annabelle Creation.(2017) BluRay 720p x264 Dual Audio [Eng-Hindi] AC3 DD 2.0 [Team SSX]


Poster
158769d704b36e46f25918fbbdf22076


iMDB
Imdb Picture Title: Annabelle: Creation
Year: 2017
Runtime: 109 minutes
Votes: 6749
Rating: 7.3/10
Language: English
Country: USA
All Genres: Horror, Mystery, Thriller
Plot Outline: Several years after the tragic death of their little girl, a dollmaker and his wife welcome a nun and several girls from a shuttered orphanage into their home, soon becoming the target of the dollmaker's possessed creation, Annabelle.
Tagline: You don't know the real story
Director: David F. Sandberg
Writing By: Gary Dauberman,
Produced By: Walter Hamada,Michelle Morrissey,Dave Neustadter,Hans Ritter,Peter Safran,James Wan,
Music: Benjamin Wallfisch
Plot:
Several years after the tragic death of their little girl, a dollmaker and his wife welcome a nun and several girls from a shuttered orphanage into their home, soon becoming the target of the dollmaker's possessed creation, Annabelle.

Cast:
Stephanie Sigman as Sister Charlotte
Talitha Bateman as Janice
Lulu Wilson as Linda
Miranda Otto as Esther Mullins
Anthony LaPaglia as Samuel Mullins
Alicia Vela-Bailey as Evil Mrs Mullins
Grace Fulton as Carol
Samara Lee as Bee Mullins
Philippa Coulthard as Nancy
Joseph Bishara as Annabelle Demon
Trailers:
Official Trailer #2
Official Trailer
Announcement Trailer


Details
Name:Annabelle Creation.(2017) BluRay 720p x264 Dual Audio [Eng-Hindi] AC3 DD 2.0 [Team SSX]
Description:
Annabelle Creation.2017 720p BluRay x264 Eng-Hindi AC3 DD 2.0 [Team SSX]



General

Format                                   : Matroska
Format version                           : Version 4 / Version 2
File size                                : 1.07 GiB
Duration                                 : 1 h 49 min
Overall bit rate                         : 1 403 kb/s


Video
ID                                       : 1
Format                                   : AVC
Format/Info                              : Advanced Video Codec
Format profile                           : High@L4.1
Format settings                          : CABAC / 4 Ref Frames
Format settings, CABAC                   : Yes
Format settings, RefFrames               : 4 frames
Codec ID                                 : V_MPEG4/ISO/AVC
Duration                                 : 1 h 49 min
Bit rate                                 : 900 kb/s
Width                                    : 1 280 pixels
Height                                   : 534 pixels
Display aspect ratio                     : 2.40:1
Original display aspect ratio            : 2.40:1
Frame rate mode                          : Constant
Frame rate                               : 23.976 (24000/1001) FPS
Color space                              : YUV
Chroma subsampling                       : 4:2:0
Bit depth                                : 8 bits
Scan type                                : Progressive
Bits/(Pixel*Frame)                       : 0.055
Stream size                              : 706 MiB (64%)
Default                                  : Yes
Forced                                   : No

Audio #1
ID                                       : 2
Format                                   : AAC
Format/Info                              : Advanced Audio Codec
Format profile                           : LC
Codec ID                                 : A_AAC-2
Duration                                 : 1 h 49 min
Bit rate                                 : 116 kb/s
Channel(s)                               : 2 channels
Channel positions                        : Front: L R
Sampling rate                            : 48.0 kHz
Frame rate                               : 46.875 FPS (1024 SPF)
Compression mode                         : Lossy
Delay relative to video                  : -43 ms
Stream size                              : 91.4 MiB (8%)
Language                                 : English
Default                                  : No
Forced                                   : No

Audio #2
ID                                       : 3
Format                                   : AC-3
Format/Info                              : Audio Coding 3
Codec ID                                 : A_AC3
Duration                                 : 1 h 49 min
Bit rate mode                            : Constant
Bit rate                                 : 384 kb/s
Channel(s)                               : 2 channels
Channel positions                        : Front: L R
Sampling rate                            : 48.0 kHz
Frame rate                               : 31.250 FPS (1536 SPF)
Bit depth                                : 16 bits
Compression mode                         : Lossy
Delay relative to video                  : -43 ms
Stream size                              : 301 MiB (27%)
Language                                 : Hindi
Service kind                             : Complete Main
Default                                  : Yes
Forced                                   : No












Category:Movies > Hollywood Dub
Lang:Hindi
Total Size:1.07 GB



:download:

|| Download This Movie Via Single Resumable Links Size: 1.07 GB ||

Direct-1 Google Drive | Direct-2 | Direct-3 |

Watch Online Click Here

Post a Comment

0 Comments