Crazy World Only 4 You

Sorry For The Inconvenience. If You are facing link dead or no google drive file access then inform us via comment

LightBlog

Latest Updates

Tuesday, 17 April 2018

Baaghi 2 (2018) Hindi 720p HDRip x264 AAC


Poster
420aaf9149848db15fe8bb1e852fbfd4


iMDB
Imdb Picture Title: Baaghi 2
Year: 2018
Language: Hindi
Country: India
All Genres: Action
Plot Outline: Ronny, is hired by ex-lover Neha, to track down her daughter Riya, who has been kidnapped.
Director: Ahmed Khan
Writing By: Hussain Dalal,Abbas Hirapurwala,Jojo Khan,Niraj Kumar Mishra,Sajid Nadiadwala,
Produced By: Bharat Bohra,Dipti Jindal,Rakesh Madhotra,Sajid Nadiadwala,Vikram Raazdan,Vijay Singh,
Music: Mithoon Julius Packiam
Cast:
Disha Patani as Neha
Tiger Shroff as Ronny
Randeep Hooda as
Manoj Bajpayee as
Lakshmi Manchu as
Prateik as
Shifuji Shaurya Bharadwaj as
Paras Arora as
Darshan Kumar as
Indraneel Bhattacharya as
Trailers:
Baaghi 2 Trailer


Details
Name:Baaghi 2 (2018) Hindi 720p HDRip x264 AAC
Description:
Baaghi 2 (2018) Hindi 720p HDRip x264 AAC


420aaf9149848db15fe8bb1e852fbfd4

Format                                   : Matroska
Format version                           : Version 4 / Version 2
File size                                : 1.40 GiB
Duration                                 : 2 h 23 min
Overall bit rate                         : 1 395 kb/s

Video
ID                                       : 1
Format                                   : AVC
Format/Info                              : Advanced Video Codec
Format profile                           : High@L3.1
Format settings                          : CABAC / 5 Ref Frames
Format settings, CABAC                   : Yes
Format settings, RefFrames               : 5 frames
Codec ID                                 : V_MPEG4/ISO/AVC
Duration                                 : 2 h 23 min
Bit rate                                 : 1 280 kb/s
Width                                    : 1 280 pixels
Height                                   : 720 pixels
Display aspect ratio                     : 16:9
Frame rate mode                          : Constant
Frame rate                               : 15.000 FPS
Color space                              : YUV
Chroma subsampling                       : 4:2:0
Bit depth                                : 8 bits
Scan type                                : Progressive
Bits/(Pixel*Frame)                       : 0.093
Stream size                              : 1.27 GiB (91%)
Title                                    : www.MovCR.com
Writing library                          : x264 core 148 r2643 5c65704
Default                                  : Yes
Forced                                   : No

Audio
ID                                       : 2
Format                                   : AAC
Format/Info                              : Advanced Audio Codec
Format profile                           : LC
Codec ID                                 : A_AAC-2
Duration                                 : 2 h 23 min
Bit rate                                 : 125 kb/s
Channel(s)                               : 2 channels
Channel positions                        : Front: L R
Sampling rate                            : 44.1 kHz
Frame rate                               : 43.066 FPS (1024 SPF)
Compression mode                         : Lossy
Delay relative to video                  : -23 ms
Stream size                              : 129 MiB (9%)
Language                                 : Hindi
Default                                  : Yes
Forced                                   : No


81ef87a0a448b4227abbdd63d899778e.th.png fc205cc31b882bdb25237e9355c3bcac.th.png 738025689e59de883b6ac4098c25cb58.th.png fe2c35c9057b48063f60e6f6edb80a0f.th.png 6013cda465bc71660b071c883c81a73f.th.png d86fcb37d9faffd46907e9930c443128.th.png 036e792ddfc348be4578d3014fae08fb.th.png 2912197e9ce418e5a593d878a188ae37.th.png 552f6223c9f970aa336ffbb4fd7bb442.th.png 84c9e64625b53aa412d56b02fd31f9a9.th.jpg
Category:Movies > Bollywood
Lang:Hindi
Total Size:1.41 GB



:download:

|| Download This Movie Via Single Resumable Links Size: 1.40 GB ||

Direct-1 Google Drive | Direct-2 | Direct-3 |

Watch Online Click Here

No comments:

Post a Comment