Ben Hur (2016) 720p BluRay x264 [Dual Audio] [Hindi DD 5.1 - English DD 5.1] - LOKI - M2Tv


Poster
maxresdefault


iMDB
Imdb Picture Title: Ben-Hur
Year: 2016
Runtime: 123 minutes
Votes: 26951
Rating: 5.7/10
Language: English
Country: USA
All Genres: Action, Adventure, Drama
Plot Outline: Judah Ben-Hur, a prince falsely accused of treason by his adopted brother, an officer in the Roman army, returns to his homeland after years at sea to seek revenge, but finds redemption.
Tagline: First to finish. Last to die.
Director: Timur Bekmambetov
Writing By: Lew Wallace,Keith R. Clarke,John Ridley,
Produced By: Jason F. Brown,Mark Burnett,Keith R. Clarke,Sean Daniel,Roma Downey,Duncan Henderson,Joni Levin,R.J. Mino,John Ridley,Enzo Sisti,
Music: Marco Beltrami
Plot:
Judah Ben-Hur, a prince falsely accused of treason by his adopted brother, an officer in the Roman army, returns to his homeland after years at sea to seek revenge, but finds redemption.

Cast:
Jack Huston as Judah Ben-Hur
Toby Kebbell as Messala Severus
Rodrigo Santoro as Jesus
Nazanin Boniadi as Esther
Ayelet Zurer as Naomi Ben-Hur
Pilou Asbæk as Pontius Pilate
Sofia Black-D'Elia as Tirzah Ben-Hur
Morgan Freeman as Ilderim
Marwan Kenzari as Druses
Moises Arias as Dismas
Trailers:
New Trailer
Official Trailer


Details
Name:Ben Hur 2016 Blu-Ray 720p x264 Dual Audio (Eng+Hin AAC 5.1) ESub-HDSector
Description:
*• Ben Hur •* *• 2016 •* *• BluRay •* *• 720p / AC3 / 5.1 / E-Subs •* *• Team M2Tv •*

Ben-_Hur-steelbook-1

Format                                                            :  Matroska
Format version                                                        :  Version 4 / Version 2
File size                                                        :  1.26 GiB
Duration                                                        :  2 h 4 min
Overall bit rate                                                        :  1 446 kb/s

Video
ID                                                        :  1
Format                                                        :  AVC
Format/Info                                                        :  Advanced Video Codec
Format profile                                                        :  High@L3.1
Format settings, CABAC                                                        :  Yes
Format settings, ReFrames                                                        :  3 frames
Codec ID                                                        :  V_MPEG4/ISO/AVC
Duration                                                        :  2 h 4 min
Bit rate                                                        :  998 kb/s
Width                                                        :  1 280 pixels
Height                                                        :  536 pixels
Display aspect ratio                                                        :  2.40 : 1
Frame rate mode                                                        :  Constant
Frame rate                                                        :  23.976 (24000/1001) FPS
Color space                                                        :  YUV
Chroma subsampling                                                        :  4 : 2 : 0
Bit depth                                                        :  8 bits
Scan type                                                        :  Progressive
Bits/(Pixel*Frame)                                                        :  0.058
Stream size                                                        :  892 MiB (68%)
Language                                                        :  English
Default                                                        :  Yes
Forced                                                        :  No

Audio #1
ID                                                        :  2
Format                                                        :  AC-3
Format/Info                                                        :  Audio Coding 3
Mode extension                                                        :  CM (complete main)
Format settings, Endianness                                                        :  Big
Codec ID                                                        :  A_AC3
Duration                                                        :  2 h 3 min
Bit rate mode                                                        :  Constant
Bit rate                                                        :  224 kb/s
Channel(s)                                                        :  6 channels
Channel positions                                                        :  Front  :  L C R, Side  :  L R, LFE
Sampling rate                                                        :  48.0 kHz
Frame rate                                                        :  31.250 FPS (1536 spf)
Compression mode                                                        :  Lossy
Stream size                                                        :  198 MiB (16%)
Language                                                        :  Hindi
Default                                                        :  Yes
Forced                                                        :  No

Audio #2
ID                                                        :  3
Format                                                        :  AC-3
Format/Info                                                        :  Audio Coding 3
Mode extension                                                        :  CM (complete main)
Format settings, Endianness                                                        :  Big
Codec ID                                                        :  A_AC3
Duration                                                        :  2 h 4 min
Bit rate mode                                                        :  Constant
Bit rate                                                        :  224 kb/s
Channel(s)                                                        :  6 channels
Channel positions                                                        :  Front  :  L C R, Side  :  L R, LFE
Sampling rate                                                        :  48.0 kHz
Frame rate                                                        :  31.250 FPS (1536 spf)
Compression mode                                                        :  Lossy
Stream size                                                        :  200 MiB (16%)
Language                                                        :  English
Default                                                        :  No
Forced                                                        :  No

Ben-Hur-2016-720p-Hi-Eng-DD-5.1-By--Sworld4ufree.Blogspot.Com.jpg
Category:Movies > Hollywood Dub
Lang:Hindi
Total Size:1.27 GB



:download:

|| Download This Movie Via Single Resumable Links Size: 1.26 GB ||

Direct-1 Google Drive | Direct-2 | Direct-3 |

Watch Online Click Here

Post a Comment

0 Comments