Carrie (2013) BluRay 720p x264 Dual Audio [Hindi + Eng] Esubs Exclusive By Maher


Poster


iMDB
Imdb Picture Title: Carrie
Year: 2013
Runtime: 100 minutes
Votes: 115384
Rating: 5.9/10
Language: English
Country: USA
All Genres: Drama, Horror
Plot Outline: A shy girl, outcasted by her peers and sheltered by her religious mother, unleashes telekinetic terror on her small town after being pushed too far at her senior prom.
Tagline: Know her name. Fear her power.
Director: Kimberly Peirce
Writing By: Lawrence D. Cohen,Roberto Aguirre-Sacasa,Stephen King,
Produced By: Judi Bell,J. Miles Dale,Kevin Misher,
Music: Marco Beltrami
Cast:
Julianne Moore as Margaret White
Chloë Grace Moretz as Carrie White
Gabriella Wilde as Sue Snell
Portia Doubleday as Chris Hargensen
Zoë Belkin as Tina
Samantha Weinstein as Heather
Karissa Strain as Nicki
Katie Strain as Lizzy
Ansel Elgort as Tommy Ross
Demetrius Joyette as George Dawson
Trailers:
Version 2
Teaser


Details
Name:The Greatest Showman (2017) BluRay 720p x264 Dual Audio [Hindi DD 5.1 - Eng] x264 AAC MSub ~Kat...
Description:

Carrie 2013 x264 720p Dual Audio [Hindi + Eng] BluRay Esubs Exclusive By Maher

-= You will know her name =-

-=Exclusive By -=MAHER=-




Format : Matroska
Format version : Version 4 / Version 2
File size : 897 MiB
Duration : 1 h 40 min
Overall bit rate : 1 242 kb/s
Encoded date : UTC 2018-04-24 09:46:24
Writing application : mkvmerge v9.7.1 ('Pandemonium') 64bit
Writing library : libebml v1.3.4 + libmatroska v1.4.5

Video
ID : 1
Format : AVC
Format/Info : Advanced Video Codec
Format profile : High@L4.1
Format settings : CABAC / 4 Ref Frames
Format settings, CABAC : Yes
Format settings, RefFrames : 4 frames
Codec ID : V_MPEG4/ISO/AVC
Duration : 1 h 40 min
Bit rate : 956 kb/s
Width : 1 280 pixels
Height : 544 pixels
Display aspect ratio : 2.35:1
Frame rate mode : Constant
Frame rate : 23.976 (24000/1001) FPS
Original frame rate : 23.976 (23976/1000) FPS
Color space : YUV
Chroma subsampling : 4:2:0
Bit depth : 8 bits
Scan type : Progressive
Bits/(Pixel*Frame) : 0.057
Stream size : 690 MiB (77%)
Writing library : x264 core 132 r2 76a5c3a
Encoding settings : cabac=1 / ref=4 / deblock=1:-1:-1 / analyse=0x3:0x133 / me=umh / subme=9 / psy=1 / psy_rd=1.00:0.15 / mixed_ref=1 / me_range=24 / chroma_me=1 / trellis=2 / 8x8dct=1 / cqm=0 / deadzone=21,11 / fast_pskip=0 / chroma_qp_offset=-3 / threads=18 / lookahead_threads=1 / sliced_threads=0 / nr=0 / decimate=1 / interlaced=0 / bluray_compat=0 / constrained_intra=0 / bframes=3 / b_pyramid=2 / b_adapt=2 / b_bias=0 / direct=3 / weightb=1 / open_gop=0 / weightp=2 / keyint=250 / keyint_min=23 / scenecut=40 / intra_refresh=0 / rc_lookahead=60 / rc=2pass / mbtree=1 / bitrate=956 / ratetol=1.0 / qcomp=0.60 / qpmin=0 / qpmax=69 / qpstep=4 / cplxblur=20.0 / qblur=0.5 / vbv_maxrate=31250 / vbv_bufsize=31250 / nal_hrd=none / ip_ratio=1.40 / aq=1:1.00
Default : Yes
Forced : No
Color range : Limited
Color primaries : BT.709
Matrix coefficients : BT.709

Audio #1
ID : 2
Format : AAC
Format/Info : Advanced Audio Codec
Format profile : LC
Codec ID : A_AAC-2
Duration : 1 h 40 min
Bit rate : 93.8 kb/s
Channel(s) : 2 channels
Channel positions : Front: L R
Sampling rate : 48.0 kHz
Frame rate : 46.875 FPS (1024 SPF)
Compression mode : Lossy
Stream size : 67.7 MiB (8%)
Language : English
Default : No
Forced : No

Audio #2
ID : 3
Format : AAC
Format/Info : Advanced Audio Codec
Format profile : LC
Codec ID : A_AAC-2
Duration : 1 h 40 min
Bit rate : 192 kb/s
Channel(s) : 2 channels
Channel positions : Front: L R
Sampling rate : 48.0 kHz
Frame rate : 46.875 FPS (1024 SPF)
Compression mode : Lossy
Stream size : 137 MiB (15%)
Title : By-MAHER
Language : Hindi
Default : Yes
Forced : Yes

Text
ID : 4
Format : UTF-8
Codec ID : S_TEXT/UTF8
Codec ID/Info : UTF-8 Plain Text
Duration : 1 h 38 min
Bit rate : 93 b/s
Count of elements : 1058
Stream size : 67.1 KiB (0%)
Default : Yes
Forced : No






Category:Movies > Hollywood Dub
Lang:Hindi
Total Size:927.59 MB



|| Download This Movie Via Single Resumable Links Size: 897 MB ||

Direct-1 Google Drive | Direct-2 | Direct-3 |

Watch Online Click Here

Post a Comment

0 Comments