Crazy World Only 4 You

Sorry For The Inconvenience. If You are facing link dead or no google drive file access then inform us via comment

LightBlog

Latest Updates

Saturday, 7 April 2018

Flightplan (2005) BluRay 720p x264 Dual Audio [Hindi + Eng] Exclusive By Maher


Poster
plan-de-vuelo-desaparecida-blu-ray-l_cover


iMDB
Imdb Picture Title: Flightplan
Year: 2005
Runtime: 98 minutes
Votes: 137052
Rating: 6.3/10
Language: English, French, German, Arabic, Italian, Japanese
Country: USA
All Genres: Drama, Mystery, Thriller
Plot Outline: A bereaved woman and her daughter are flying home from Berlin to America. At 30,000 feet, the child vanishes, and nobody will admit she was ever on the plane.
Tagline: This Fall, One passenger is taking control.............to find the truth
Director: Robert Schwentke
Writing By: Peter A. Dowling,Billy Ray,
Produced By: Sarah Bowen,Robert DiNozzi,Brian Grazer,Erica Huggins,Stuart Pollok,Charles J.D. Schlissel,Jim Whitaker,
Music: James Horner
Cast:
Jodie Foster as Kyle Pratt
Peter Sarsgaard as Carson
Sean Bean as Captain Rich
Kate Beahan as Stephanie
Michael Irby as Obaid
Assaf Cohen as Ahmed
Erika Christensen as Fiona
Shane Edelman as Mr. Loud
Mary Gallagher as Mrs. Loud
Haley Ramm as Brittany Loud
Trailers:
Flightplan


Details
Name:Flightplan 2005 x264 720p [Hindi + Eng] BluRay Exclusive By Maher
Description:
Flightplan (2005) BluRay 720p x264 Dual Audio [Hindi + Eng] Exclusive By Maher

ec928e7c4728e95069d8e37125ac7dcc

Format : Matroska
Format version : Version 4 / Version 2
File size : 784 MiB
Duration : 1 h 38 min
Overall bit rate : 1 118 kb/s

Video
ID : 1
Format : AVC
Format/Info : Advanced Video Codec
Format profile : High@L4
Format settings : CABAC / 5 Ref Frames
Format settings, CABAC : Yes
Format settings, RefFrames : 5 frames
Codec ID : V_MPEG4/ISO/AVC
Duration : 1 h 38 min
Bit rate : 837 kb/s
Width : 1 280 pixels
Height : 544 pixels
Display aspect ratio : 2.35:1
Frame rate mode : Constant
Frame rate : 23.976 (24000/1001) FPS
Color space : YUV
Chroma subsampling : 4:2:0
Bit depth : 8 bits
Scan type : Progressive
Bits/(Pixel*Frame) : 0.050
Stream size : 587 MiB (75%)
Writing library : x264 core 152 r2851 ba24899
Default : Yes
Forced : No
Color range : Limited
Color primaries : BT.709

Audio #1
ID : 2
Format : AAC
Format/Info : Advanced Audio Codec
Format profile : LC
Codec ID : A_AAC-2
Duration : 1 h 38 min
Bit rate : 88.9 kb/s
Channel(s) : 2 channels
Channel positions : Front: L R
Sampling rate : 48.0 kHz
Frame rate : 46.875 FPS (1024 SPF)
Compression mode : Lossy
Delay relative to video : 9 ms
Stream size : 62.4 MiB (8%)
Language : English
Default : No
Forced : No

Audio #2
ID : 3
Format : AAC
Format/Info : Advanced Audio Codec
Format profile : LC
Codec ID : A_AAC-2
Duration : 1 h 38 min
Bit rate : 192 kb/s
Channel(s) : 2 channels
Channel positions : Front: L R
Sampling rate : 48.0 kHz
Frame rate : 46.875 FPS (1024 SPF)
Compression mode : Lossy
Stream size : 133 MiB (17%)
Title : By-MAHER
Language : Hindi
Default : Yes
Forced : Yes

Text
ID : 4
Format : UTF-8
Codec ID : S_TEXT/UTF8
Codec ID/Info : UTF-8 Plain Text
Duration : 1 h 29 min
Bit rate : 41 b/s
Count of elements : 777
Stream size : 27.2 KiB (0%)
Default : Yes
Forced : No
ae8b1658d5ec8705f0b01a26626956b6.th.png b6df6147fbaeb8990aba5473eafdb3e8.th.png d57e0c189a6af48e0c46a2cc0f697343.th.png a04b0087ad4bd502cffb8a47c866591c.th.png
Category:Movies > Hollywood Dub
Lang:Hindi
Total Size:799.31 MB



:download:

|| Download This Movie Via Single Resumable Links Size: 784 MB ||

Direct-1 Google Drive | Direct-2 | Direct-3 |

Watch Online Click Here

No comments:

Post a Comment