Green Room (2015) BluRay 720p x264 Dual Audio [Hindi DD 5.1 - En [Team SSX]


Poster


iMDB
Imdb Picture Title: Green Room
Year: 2015
Runtime: 95 minutes
Votes: 66763
Rating: 7.0/10
Language: English
Country: USA
All Genres: Crime, Horror, Thriller
Plot Outline: A punk rock band is forced to fight for survival after witnessing a murder at a neo-Nazi skinhead bar.
Tagline: Now. Whatever you saw or did. Is no longer my concern. But let's be clear. It won't end well.
Director: Jeremy Saulnier
Writing By: Jeremy Saulnier,
Produced By: Macon Blair,Daniel Hammond,Gabriel Hammond,Brian Johnston,Neil Kopp,Victor Moyers,Vincent Savino,Anish Savjani,
Music: Brooke Blair Will Blair
Plot:
A band straying into a secluded part of the Pacific Northwest stumbles onto a horrific act of violence. Because they are the only witnesses, they become the targets of a terrifying gang of skinheads who want to make sure all the evidence is eliminated.
- Written by Aymanati
In the Pacific Northwest, teenager Pat takes part of punk rock band, The Ain't Rights, at a night and drug club. Their tour to try and get famous fails badly with hatred. Unfortunately, for them, their tour eventually turns into something very nasty when they are witnesses at a crime scene. Since the notorious club owner, Darcy Banker, is now on the case of the incident, the Ain't Rights start to work together to try and escape the club alive and make it back to Washington DC-before Darcy finds them
A punk rock band is forced to fight for survival after witnessing a murder at a neo-Nazi skinhead bar.
- Written by Noah Orent
Cast:
Anton Yelchin as Pat
Joe Cole as Reece
Alia Shawkat as Sam
Callum Turner as Tiger
David W. Thompson as Tad
Mark Webber as Daniel
Macon Blair as Gabe
Eric Edelstein as Big Justin
Michael Draper as Stagehand
Andy Copeland as Stage Manager
Trailers:
IMDb Commentary With 'Green Room' Director Jeremy Saulnier
Green Room | Official Trailer 3 HD | A24
New Trailer
Green Room | Official Trailer 2 HD | A24
Teaser Trailer



Details
Name:Green Room 2015 720p BluRay x264 Eng-Hindi AC3 DD 5.1 [Team SSX].mkv
Description:
Green Room 2015 720p BluRay x264 Eng-Hindi AC3 DD 5.1 [Team SSX]

 

General

Format                                   : Matroska
Format version                           : Version 4 / Version 2
File size                                : 961 MiB
Duration                                 : 1 h 35 min
Overall bit rate                         : 1 414 kb/s


Video
ID                                       : 1
Format                                   : AVC
Format/Info                              : Advanced Video Codec
Format profile                           : High@L4.1
Format settings                          : CABAC / 4 Ref Frames
Format settings, CABAC                   : Yes
Format settings, RefFrames               : 4 frames
Codec ID                                 : V_MPEG4/ISO/AVC
Duration                                 : 1 h 35 min
Bit rate                                 : 900 kb/s
Width                                    : 1 280 pixels
Height                                   : 534 pixels
Display aspect ratio                     : 2.40:1
Original display aspect ratio            : 2.40:1
Frame rate mode                          : Constant
Frame rate                               : 23.976 (24000/1001) FPS
Color space                              : YUV
Chroma subsampling                       : 4:2:0
Bit depth                                : 8 bits
Scan type                                : Progressive
Bits/(Pixel*Frame)                       : 0.055
Stream size                              : 611 MiB (64%)
Default                                  : Yes
Forced                                   : No

Audio #1
ID                                       : 2
Format                                   : AAC
Format/Info                              : Advanced Audio Codec
Format profile                           : LC
Codec ID                                 : A_AAC-2
Duration                                 : 1 h 35 min
Bit rate                                 : 129 kb/s
Channel(s)                               : 2 channels
Channel positions                        : Front: L R
Sampling rate                            : 48.0 kHz
Frame rate                               : 46.875 FPS (1024 SPF)
Compression mode                         : Lossy
Delay relative to video                  : -43 ms
Stream size                              : 87.5 MiB (9%)
Language                                 : English
Default                                  : No
Forced                                   : No

Audio #2
ID                                       : 3
Format                                   : AC-3
Format/Info                              : Audio Coding 3
Codec ID                                 : A_AC3
Duration                                 : 1 h 34 min
Bit rate mode                            : Constant
Bit rate                                 : 384 kb/s
Channel(s)                               : 6 channels
Channel positions                        : Front: L C R, Side: L R, LFE
Sampling rate                            : 48.0 kHz
Frame rate                               : 31.250 FPS (1536 SPF)
Bit depth                                : 16 bits
Compression mode                         : Lossy
Delay relative to video                  : -12 ms
Stream size                              : 261 MiB (27%)
Language                                 : Hindi
Service kind                             : Complete Main
Default                                  : Yes
Forced                                   : No

               
Category:Movies > Hollywood Dub
Lang:Hindi
Total Size:961.09 MB



:download:

|| Download This Movie Via Single Resumable Links Size: 961 MB ||

Direct-1 Google Drive | Direct-2 | Direct-3 |

Watch Online Click Here

Post a Comment

0 Comments