Crazy World Only 4 You

Sorry For The Inconvenience. If You are facing link dead or no google drive file access then inform us via comment

Latest Updates

Sunday, 22 April 2018

Jio Dhan Dhana Dhan Live S01E04 Uncut 360p WEBHD x264 AAC - DTOne


Poster


Details
Name: Jio Dhan Dhana Dhan Live S01E04 Uncut 360p WEBHD x264 AAC - DTOne
Description:
 Jio Dhan Dhana Dhan Live S01E04 Uncut 360p WEBHD x264 AAC - DTOne


Format                                   : MPEG-4
Format profile                           : Base Media / Version 2
Codec ID                                 : mp42 (isom/mp42)
File size                                : 320 MiB
Duration                                 : 1 h 2 min
Overall bit rate mode                    : Variable
Overall bit rate                         : 719 kb/s
Encoded date                             : UTC 2018-04-17 20:35:11
Tagged date                              : UTC 2018-04-17 20:35:11
gsst                                     : 0
gstd                                     : 3728938

Video
ID                                       : 1
Format                                   : AVC
Format/Info                              : Advanced Video Codec
Format profile                           : Baseline@L3
Format settings                          : 1 Ref Frames
Format settings, CABAC                   : No
Format settings, ReFrames                : 1 frame
Format settings, GOP                     : M=1, N=60
Codec ID                                 : avc1
Codec ID/Info                            : Advanced Video Coding
Duration                                 : 1 h 2 min
Bit rate                                 : 621 kb/s
Maximum bit rate                         : 1 919 kb/s
Width                                    : 636 pixels
Height                                   : 360 pixels
Display aspect ratio                     : 16:9
Frame rate mode                          : Constant
Frame rate                               : 25.000 FPS
Color space                              : YUV
Chroma subsampling                       : 4:2:0
Bit depth                                : 8 bits
Scan type                                : Progressive
Bits/(Pixel*Frame)                       : 0.108
Stream size                              : 276 MiB (86%)
Tagged date                              : UTC 2018-04-17 20:35:39
Color range                              : Limited
Color primaries                          : BT.709
Transfer characteristics                 : BT.709
Matrix coefficients                      : BT.709

Audio
ID                                       : 2
Format                                   : AAC
Format/Info                              : Advanced Audio Codec
Format profile                           : LC
Codec ID                                 : mp4a-40-2
Duration                                 : 1 h 2 min
Bit rate mode                            : Variable
Bit rate                                 : 96.0 kb/s
Maximum bit rate                         : 102 kb/s
Channel(s)                               : 2 channels
Channel positions                        : Front: L R
Sampling rate                            : 44.1 kHz
Frame rate                               : 43.066 FPS (1024 SPF)
Compression mode                         : Lossy
Stream size                              : 42.7 MiB (13%)
Title                                    : IsoMedia File Produced by Google, 5-11-2011
Encoded date                             : UTC 2018-04-17 20:35:27
Tagged date                              : UTC 2018-04-17 20:35:39

JDDD_Live_S01E04_By_-Sworld4ufree.Blogspot.Com.jpg
Category:Movies > Bollywood
Lang:Hindi
Total Size:319.71 MB



:download:

|| Download This Tv Show Via Single Resumable Links Size: 320 MB ||

Direct-1 Google Drive | Direct-2 | Direct-3 |

Watch Online Click Here

No comments:

Post a Comment