Crazy World Only 4 You

Sorry For The Inconvenience. If You are facing link dead or no google drive file access then inform us via comment

Latest Updates

Sunday, 22 April 2018

Jio Dhan Dhana Dhan Live S01E05 Uncut 720p WEBHD x264 AAC - DTOne


Poster


Details
Name: Jio Dhan Dhana Dhan Live S01E05 Uncut 720p WEBHD x264 AAC - DTOne
Description:
 Jio Dhan Dhana Dhan Live S01E05 Uncut 720p WEBHD x264 AAC - DTOne


Format                                   : MPEG-4
Format profile                           : Base Media / Version 2
Codec ID                                 : mp42 (isom/mp42)
File size                                : 1.32 GiB
Duration                                 : 1 h 3 min
Overall bit rate mode                    : Variable
Overall bit rate                         : 2 968 kb/s
Encoded date                             : UTC 2018-04-19 20:46:00
Tagged date                              : UTC 2018-04-19 20:46:00
gsst                                     : 0
gstd                                     : 3819821

Video
ID                                       : 1
Format                                   : AVC
Format/Info                              : Advanced Video Codec
Format profile                           : High@L3.1
Format settings                          : CABAC / 1 Ref Frames
Format settings, CABAC                   : Yes
Format settings, RefFrames               : 1 frame
Format settings, GOP                     : M=1, N=60
Codec ID                                 : avc1
Codec ID/Info                            : Advanced Video Coding
Duration                                 : 1 h 3 min
Bit rate                                 : 2 774 kb/s
Maximum bit rate                         : 9 563 kb/s
Width                                    : 1 270 pixels
Height                                   : 720 pixels
Display aspect ratio                     : 16:9
Frame rate mode                          : Constant
Frame rate                               : 25.000 FPS
Color space                              : YUV
Chroma subsampling                       : 4:2:0
Bit depth                                : 8 bits
Scan type                                : Progressive
Bits/(Pixel*Frame)                       : 0.121
Stream size                              : 1.23 GiB (93%)
Tagged date                              : UTC 2018-04-19 20:47:59
Color range                              : Limited
Color primaries                          : BT.709
Transfer characteristics                 : BT.709
Matrix coefficients                      : BT.709

Audio
ID                                       : 2
Format                                   : AAC
Format/Info                              : Advanced Audio Codec
Format profile                           : LC
Codec ID                                 : mp4a-40-2
Duration                                 : 1 h 3 min
Bit rate mode                            : Variable
Bit rate                                 : 192 kb/s
Maximum bit rate                         : 201 kb/s
Channel(s)                               : 2 channels
Channel positions                        : Front: L R
Sampling rate                            : 44.1 kHz
Frame rate                               : 43.066 FPS (1024 SPF)
Compression mode                         : Lossy
Stream size                              : 87.4 MiB (6%)
Title                                    : IsoMedia File Produced by Google, 5-11-2011
Encoded date                             : UTC 2018-04-19 20:47:07
Tagged date                              : UTC 2018-04-19 20:47:59

419ea7d7e7998ad1e8485de598e061fc.png f05b05bf12332381e16209f957c4dcb9.png 49caedeffd008232d335dab78474c128.png 5b966f22b7a783c9165fb50da49783cf.png f9cd1851ee7ce1ff0e886ddf8f2284e0.png
Category:Movies > Bollywood
Lang:Hindi
Total Size:1.32 GB



:download:

|| Download This Tv Show Via Single Resumable Links Size: 1.32 GB ||

Direct-1 Google Drive | Direct-2 | Direct-3 |

Watch Online Click Here

No comments:

Post a Comment