Crazy World Only 4 You

Sorry For The Inconvenience. If You are facing link dead or no google drive file access then inform us via comment

Latest Updates

Saturday, 28 April 2018

Jio Dhan Dhana Dhan Live S01E06 Uncut 480p WEBHD x264 AAC - DTOne


Poster


Details
Name: Jio Dhan Dhana Dhan Live S01E06 Uncut 480p WEBHD x264 AAC - DTOne
Description:
 Jio Dhan Dhana Dhan Live S01E06 Uncut 480p WEBHD x264 AAC - DTOne


Format                                   : MPEG-4
Format profile                           : Base Media / Version 2
Codec ID                                 : mp42 (isom/mp42)
File size                                : 664 MiB
Duration                                 : 1 h 14 min
Overall bit rate mode                    : Variable
Overall bit rate                         : 1 248 kb/s
Encoded date                             : UTC 2018-04-24 18:07:47
Tagged date                              : UTC 2018-04-24 18:07:47
gsst                                     : 0
gstd                                     : 4461900

Video
ID                                       : 1
Format                                   : AVC
Format/Info                              : Advanced Video Codec
Format profile                           : Main@L3
Format settings                          : CABAC / 3 Ref Frames
Format settings, CABAC                   : Yes
Format settings, ReFrames                : 3 frames
Codec ID                                 : avc1
Codec ID/Info                            : Advanced Video Coding
Duration                                 : 1 h 14 min
Bit rate                                 : 1 118 kb/s
Maximum bit rate                         : 2 757 kb/s
Width                                    : 848 pixels
Height                                   : 480 pixels
Display aspect ratio                     : 16:9
Frame rate mode                          : Constant
Frame rate                               : 25.000 FPS
Color space                              : YUV
Chroma subsampling                       : 4:2:0
Bit depth                                : 8 bits
Scan type                                : Progressive
Bits/(Pixel*Frame)                       : 0.110
Stream size                              : 595 MiB (90%)
Tagged date                              : UTC 2018-04-24 18:22:10
Color range                              : Limited
Color primaries                          : BT.709
Transfer characteristics                 : BT.709
Matrix coefficients                      : BT.709

Audio
ID                                       : 2
Format                                   : AAC
Format/Info                              : Advanced Audio Codec
Format profile                           : LC
Codec ID                                 : mp4a-40-2
Duration                                 : 1 h 14 min
Bit rate mode                            : Variable
Bit rate                                 : 128 kb/s
Maximum bit rate                         : 134 kb/s
Channel(s)                               : 2 channels
Channel positions                        : Front: L R
Sampling rate                            : 44.1 kHz
Frame rate                               : 43.066 FPS (1024 SPF)
Compression mode                         : Lossy
Stream size                              : 68.1 MiB (10%)
Title                                    : IsoMedia File Produced by Google, 5-11-2011
Encoded date                             : UTC 2018-04-24 18:17:10
Tagged date                              : UTC 2018-04-24 18:22:10

509c3347595c1916f0ebcf1c75a05d67.jpg
Category:Movies > Bollywood
Lang:Hindi
Total Size:663.93 MB



:download:

|| Download This Tv Show Via Single Resumable Links Size: 664 MB ||

Direct-1 Google Drive | Direct-2 | Direct-3 |

Watch Online Click Here

No comments:

Post a Comment