Crazy World Only 4 You

Sorry For The Inconvenience. If You are facing link dead or no google drive file access then inform us via comment

Latest Updates

Friday, 27 April 2018

Jumanji: Welcome to the Jungle (2017) BluRay 720p x264 Dual Audio [Hindi DD5.1(RM) - English DD2.0] - Esub ~ Ranvijay


Poster


iMDB
Imdb Picture Title: Jumanji: Welcome to the Jungle
Year: 2017
Runtime: 119 minutes
Votes: 7900
Rating: 7.1/10
Language: English
Country: USA
All Genres: Action, Adventure, Comedy, Fantasy
Plot Outline: Four teenagers discover an old video game console and are literally drawn into the game's jungle setting, becoming the adult avatars they choose.
Tagline: The game has evolved.
Director: Jake Kasdan
Writing By: Chris McKenna,Erik Sommers,Scott Rosenberg,Jeff Pinkner,Chris McKenna,Chris Van Allsburg,
Produced By: Ted Field,Dany Garcia,Hiram Garcia,David B. Householter,Dwayne Johnson,Jake Kasdan,Melvin Mar,William Teitler,Matt Tolmach,Mike Weber,
Music: Henry Jackman
Cast:
Dwayne Johnson as Spencer
Kevin Hart as Fridge
Jack Black as Bethany
Karen Gillan as Martha
Rhys Darby as Nigel
Bobby Cannavale as Van Pelt
Nick Jonas as Alex
Alex Wolff as Young Spencer
Ser'Darius Blain as Young Fridge
Madison Iseman as Young Bethany
Trailers:
Official Trailer #2
Official Trailer


Details
Name:Jumanji: Welcome to the Jungle (2017) BluRay 720p x264 Dual Audio [Hindi DD5.1(RM) - English DD2.0] - Esub ~ Ranvijay
Description:
Jumanji Welcome to the Jungle (2017) 720p BluRay x264 Dual Audio [Hindi DD5.1(RM) - English DD2.0] - Esub ~ Ranvijay



   
Format                                   : Matroska
Format version                           : Version 4 / Version 2
File size                                : 1.53 GiB
Duration                                 : 1 h 59 min
Overall bit rate                         : 1 838 kb/s
Movie name                               : Jumanji Welcome to the Jungle (2017) 720p BluRay x264 Dual Audio [Hindi DD5.1(RM) - English DD2.0] - Esub ~ Ranvijay

Video
Duration                                 : 1 h 59 min
Bit rate                                 : 1 289 kb/s
Width                                    : 1 280 pixels
Height                                   : 536 pixels
Display aspect ratio                     : 2.40:1
Frame rate mode                          : Constant
Frame rate                               : 23.976 (24000/1001) FPS
Stream size                              : 1.07 GiB (70%)
Title                                    : ~Ranvijay~
Default                                  : Yes
Forced                                   : No

Audio #1
Format                                   : AAC
Duration                                 : 1 h 59 min
Bit rate                                 : 100.0 kb/s
Channel(s)                               : 2 channels
Channel positions                        : Front: L R
Sampling rate                            : 48.0 kHz / 24.0 kHz
Frame rate                               : 23.438 FPS (1024 SPF)
Compression mode                         : Lossy
Delay relative to video                  : 31 ms
Stream size                              : 85.2 MiB (5%)
Title                                    : ~Ranvijay~
Language                                 : English
Default                                  : No
Forced                                   : No

Audio #2
Format                                   : AC-3
Format/Info                              : Audio Coding 3
Codec ID                                 : A_AC3
Duration                                 : 1 h 59 min
Bit rate mode                            : Constant
Bit rate                                 : 448 kb/s
Channel(s)                               : 6 channels
Channel positions                        : Front: L C R, Side: L R, LFE
Sampling rate                            : 48.0 kHz
Frame rate                               : 31.250 FPS (1536 SPF)
Bit depth                                : 16 bits
Compression mode                         : Lossy
Stream size                              : 381 MiB (24%)
Title                                    : ~Ranvijay~
Language                                 : Hindi
Service kind                             : Complete Main
Default                                  : Yes
Forced                                   : No

Text
ID                                       : 3
Format                                   : UTF-8
Codec ID                                 : S_TEXT/UTF8
Codec ID/Info                            : UTF-8 Plain Text
Duration                                 : 1 h 48 min
Bit rate                                 : 64 b/s
Count of elements                        : 1533
Stream size                              : 51.4 KiB (0%)
Title                                    : ~Ranvijay~
Language                                 : English
Default                                  : Yes
Forced                                   : No


278f58b59a49fe7c4459aebe3e6ebaff.th.png 795e856c637f49a67fbd196ff5ca92b1.th.png 88ce6127d55f4b49acd0580d487f31c1.th.png 3f6e045c2bb64734a152293b88d08f0d.th.png bc0a1b050bbe6fa5c24e340a8209957d.th.png fcf8cd61552417e34153d73b3a91f78a.th.png 1a5f85f7e28e6daf4ddd67ff21484322.th.png 6d642d0e0bed17c35663b15b4bc13f52.th.png 017bd538b9742a799a40e4eda2300f27.th.png 48ac9dc57e827eb2ae731549ff78fce7.th.png
Category:Movies > Hollywood Dub
Lang:Hindi
Total Size:1.55 GB



|| Download This Movie Via Single Resumable Links Size: 1.53 GB ||

Direct-1 Google Drive | Direct-2 | Direct-3 |

Watch Online Click Here

No comments:

Post a Comment